.
Авторизация | Регистрация
» » Он так и знал / He Knew He Was Right (2004) DVDRip | P торрент скачать бесплатно




    Он так и знал / He Knew He Was Right (2004) DVDRip | P торрент скачать бесплатно

    Опубликовал: Админ | Дата: 27-02-2015, 11:10 | Просмотров: 263



    Детально о кино
    Русское название: Он так и знал
    Русское название в мировом прокате: He Knew He Was Right
    Создали в: 2004
    Категория жанра: драма
    Главный режиссер: Том Вон / Tom Vaughan
    Актеры: Лора Фрейзер, Джеффри Палмер, Кристина Коул, Анна Мэсси, Джеральдин Джеймс, Стивен Кэмпбелл Мур, Мэгги Оллереншоу, Рэймонд Култхард, Дэвид Теннант, Клоди Блейкли, Фенелла Вулгар, Рон Кук, Билл Найи, Кэролайн Мартин, Эми Марстон, Джоэнна Дэвид, Джейн Лапотэйр, Пэтси Палмер, Мэттью Гуд, Стефен Бересфорд, Кэти МакГиннесс, Элисон Скилбек, Сара Кроуден, Шинед Мэтьюз, Кейт Элдертон, Николас Асбари, Морин Беннетт, Саймон Дэй, Билл Муди, Полли Мур, Саймон Пэйсли Дэй, Крэйг Паркинсон, Невилл Филлипс, Линн Фарли, Джон Элдертон

    Сюжет фильма:
    Луис и Эмили Тревельян — золотая супружеская пара. Очаровательные, красивые, гордые родители маленького сына. Но когда крестный отец Эмили полковник Осборн начинает навещать ее гораздо чаще, чем этого требуют приличия, Луис считает своим долгом предостеречь жену. Уязвленная недоверием Эмили резко возражает. Супружеская идиллия рушится, и осколки былого счастья склеить практически невозможно.


    Официальный сайт

    Снималось в: Великобритания
    Киностудия: BBC One
    Время просмотра: ~00:59:00 серия
    Перевод текста: Профессиональный (многоголосый, закадровый)

    Файл
    Кодек для видео: DivX / AC3
    Качество фильма: DVDRip
    Информация о видео: MPEG4, DivX 5, 720x416 (16:9), 29.970 fps, 1 393 Kbps (0.155 bit/pixel)
    Информация о звуке: AC-3, 48.0 KHz, 2 ch, 192 Kbps, CBR (Russian)

    Скриншоты для ознакомления
    Screenshots
    MediaInfo
    General
    Complete name : /On.tak.i.znal(4.iz.4).2004.DivX.DVDRip/On.tak.i.znal.01.avi
    Format : AVI
    Format/Info : Audio Video Interleave
    File size : 701 MiB
    Duration : 59mn 1s
    Overall bit rate : 1 659 Kbps
    Writing application : VirtualDubMod 1.5.4.1 (build 2178/release)
    Writing library : VirtualDubMod build 2178/release

    Video
    ID : 0
    Format : MPEG-4 Visual
    Format settings, BVOP : 1
    Format settings, QPel : No
    Format settings, GMC : No warppoints
    Format settings, Matrix : Default (H.263)
    Muxing mode : Packed bitstream
    Codec ID : DX50
    Codec ID/Hint : DivX 5
    Duration : 59mn 1s
    Bit rate : 1 393 Kbps
    Width : 720 pixels
    Height : 416 pixels
    Display aspect ratio : 1.731
    Frame rate : 29.970 fps
    Color space : YUV
    Chroma subsampling : 4:2:0
    Bit depth : 8 bits
    Scan type : Progressive
    Compression mode : Lossy
    Bits/(Pixel*Frame) : 0.155
    Stream size : 588 MiB (84%)
    Writing library : DivX 6.6.1.4

    Audio
    ID : 1
    Format : AC-3
    Format/Info : Audio Coding 3
    Mode extension : CM (complete main)
    Format settings, Endianness : Big
    Codec ID : 2000
    Duration : 59mn 1s
    Bit rate mode : Constant
    Bit rate : 192 Kbps
    Channel(s) : 2 channels
    Channel positions : Front: L R
    Sampling rate : 48.0 KHz
    Bit depth : 16 bits
    Compression mode : Lossy
    Stream size : 81.1 MiB (12%)
    Alignment : Split accross interleaves
    Language : Russian

    Размер скачиваемого торрента: 3.42 GB (3672907776 Bytes)

    Он так и знал / He Knew He Was Right (2004) DVDRip | P торрент скачать бесплатно
    загрузка...
    Рейтинг →
     (голосов: 1, оценка 4/5, голосовать можно 1 раз )

    Другие торренты по теме:

  • Я гей и что такого / Je suis homo, et alors / Je suis gay... et alors (2007) DVB торрент скачать бесплатно
  • За что мне такое тело / My Naked Secret (2012) TVRip от Files-x торрент скачать бесплатно
  • Что-то не так с Кевином / We Need to Talk About Kevin (2011) HDRip от Scarabey | P2 торрент скачать бесплатно
  • Градоприклеенные - Так и живём (2012) MP3 торрент скачать бесплатно
  • Среда обитания. Вот такие пироги (2013) SATRip торрент скачать бесплатно
  • Что такое красота / What is beauty (2009) SATRip от RG MixTorrent | D торрент скачать бесплатно
  • Тайна личности Борна / Кто такой Борн / The Bourne Identity (1988) DVDRip-AVC от Valegorov торрент скачать бесплатно
  • Владимир Высоцкий - Нет, ребята, всё не так… (2013) DVDRip от GORGIK торрент скачать бесплатно


    • Комментарии (0):

      Информация

      Информация

        Посетители, находящиеся в группе Гости, не могут оставлять комментарии в данной новости.

        ↓ Меню



        ↓ Опрос

        А Вы добавили сайт в закладки?
        Да
        Не


        Top 10 за неделю (Фильмы)