.
Авторизация | Регистрация
» » Королева космоса / Queen of Outer Space (1958) DVDRip скачать через торрент бесплатно




    Королева космоса / Queen of Outer Space (1958) DVDRip скачать через торрент бесплатно

    Опубликовал: Админ | Дата: 27-02-2015, 11:10 | Просмотров: 230



    Русское название: Королева космоса
    Русское название в мировом прокате: Queen of Outer Space
    Создали в: 1958
    Категория жанра: Фантастика, фэнтези, приключения
    Главный режиссер: Эдвард Берндс
    Актеры: Жа Жа Габор, Эрик Флеминг, Дэйв Уиллок, Лори Митчелл, Лиза Дэвис, Пол Бирч, Патрик Вальц, Барбара Дарроу, Мэрилин Бьюфёрд

    Сюжет: Три американских космонавта отправляются в первый полет к Венере. При приближении к планете в корабль попадает атомный луч и повреждает корпус. Чтобы избежать падения, астронавты вынуждены сделать аварийную посадку. Когда они опускаются на планету, то обнаруживают, что ее населяют только очаровательные женщины в туфлях на высоких каблуках и коротких юбках.

    Снималось в: США, Allied Artists Pictures Corporation
    Время просмотра: 01:20:02
    Перевод текста: Авторский (Рутилов)

    Качество фильма: DVDRip
    Информация о видео: XviD, 2262 Кбит/с, 720x304
    Информация о звуке rus: AC3, 2 ch, 192 Кбит/с

    Инфо
    Полное имя : E:Queen of Outer Space - tahiy.avi
    Формат : AVI
    Формат/Информация : Audio Video Interleave
    Размер файла : 1,37 Гбайт
    Продолжительность : 1 ч. 19 м.
    Общий поток : 2463 Кбит/сек
    Название фильма : Queen of Outer Space - tahiy
    Программа кодирования : VirtualDubMod 1.5.10.3 | www.virtualdub-fr.org || (build 2550/release)

    Видео
    Идентификатор : 0
    Формат : MPEG-4 Visual
    Профиль формата : Advanced Simple@L5
    Параметр BVOP формата : 1
    Параметр QPel формата : Нет
    Параметр GMC формата : Без точки перехода
    Параметр матрицы формата : Default (MPEG)
    Идентификатор кодека : XVID
    Идентификатор кодека/Подсказка : XviD
    Продолжительность : 1 ч. 19 м.
    Битрейт : 2262 Кбит/сек
    Ширина : 720 пикселей
    Высота : 304 пикселя
    Соотношение сторон : 2,35:1
    Частота кадров : 23,976 кадра/сек
    Цветовое пространство : YUV
    Субдискретизация насыщенности : 4:2:0
    Битовая глубина : 8 бит
    Тип развёртки : Прогрессивная
    Метод сжатия : С потерями
    Бит/(Пиксели*Кадры) : 0.431
    Размер потока : 1,26 Гбайт (92%)
    Библиотека кодирования : XviD 1.2.1 (UTC 2008-12-04)

    Аудио
    Идентификатор : 1
    Формат : AC-3
    Формат/Информация : Audio Coding 3
    Расширение режима : CM (complete main)
    Параметр Endianness формата : Big
    Идентификатор кодека : 2000
    Продолжительность : 1 ч. 19 м.
    Вид битрейта : Постоянный
    Битрейт : 192 Кбит/сек
    Каналы : 2 канала
    Расположение каналов : Front: L R
    Частота : 48,0 КГц
    Битовая глубина : 16 бит
    Метод сжатия : С потерями
    Размер потока : 109 Мбайт (8%)
    Выравнивание : Разделение по промежуткам
    Продолжительность промежутка : 42 мс. (1,00 видеокадр)
    Время предзагрузки промежутка : 500 мс.




    Размер скачиваемого торрента: 1.37 GB (1468356608 Bytes)

    Королева космоса / Queen of Outer Space (1958) DVDRip скачать через торрент бесплатно
    загрузка...
    Рейтинг →
     (голосов: 1, оценка 5/5, голосовать можно 1 раз )

    Другие торренты по теме:



      Комментарии (0):

      Информация

      Информация

        Посетители, находящиеся в группе Гости, не могут оставлять комментарии в данной новости.

        ↓ Меню



        ↓ Опрос

        А Вы добавили сайт в закладки?
        Да
        Не


        Top 10 за неделю (Фильмы)