.
Авторизация | Регистрация
» » Домашняя вечеринка 2 / House Party 2 (1991) WEB-DL 1080p от MediaClub | A скачать через торрент бесплатно




    Домашняя вечеринка 2 / House Party 2 (1991) WEB-DL 1080p от MediaClub | A скачать через торрент бесплатно

    Опубликовал: Админ | Дата: 27-02-2015, 11:10 | Просмотров: 202



    Детально о кино
    Русское название: Домашняя вечеринка 2
    Русское название в мировом прокате: House Party 2
    Создали в: 1991
    Категория жанра: Комедия, мелодрама, музыка
    Главный режиссер: Джордж Джексон, Даг МакГенри
    Актеры: Мартин Лоуренс, Кристофер Рид, Кристофер Мартин, Тиша Кэмпбелл, Имэн, Д. Кристофер Джадж

    Сюжет: Парочка чернокожих комиков Кристофер Рид (Кид) и Кристофер Мартин (Плэй) - продукт современной американской молодежной культуры, во многом ориентированной на стиль рэп. Первую серию западные критики считают неплохим мюзиклом. Вторая, при всей ее насыщенности музыкой и песнями, должна, пожалуй, проходить по разряду комедий, иначе мюзиклами придется назвать все фильмы последних нескольких лет, созданные чернокожими кинематографистами с участием чернокожих же актеров. Кид - паренек, поступивший в колледж. Плэй - его приятель, зациклившийся на записи собственных пластинок, но не имеющий для этого денег. В его руки попадает чековая книжка Кида, баксы быстренько тратятся, а Кида вызывает декан и сообщает: не будет оплачено обучение - придется покинуть колледж...



    Снималось в: США / The Hudlin Brothers, Jackson/McHenry Films, New Line Cinema
    Время просмотра: 01:34:20
    Перевод текста: Авторский

    Файл
    Качество фильма: WEB-DL 1080p
    Информация о видео: MPEG-4 AVC, 5103 Кбит/с, 1916x1076, 23.976 кадр/с
    Информация о звуке #1: Русский (AC3, 2 ch, 192 Кбит/с) / Авторский одноголосый (Живов)
    Информация о звуке #2: Английский (AC3, 6 ch, 384 Кбит/с)
    Субтитры: Английские

    Семпл

    Скриншоты для ознакомления



    MI
    Общее
    Уникальный идентификатор : 190345092058985078464136548399274701556 (0x8F33219A0435B892A14C009AF46AB2F4)
    Полное имя : D:Mои раздачиHouse.Party.2.The.Pajama.Jam.1991.1080p.WEB-DL-MediaClub.mkv
    Формат : Matroska
    Версия формата : Version 4 / Version 2
    Размер файла : 3,82 Гбайт
    Продолжительность : 1 ч. 34 м.
    Общий поток : 5794 Кбит/сек
    Название фильма : -=MediaClub-kaspr=-
    Дата кодирования : UTC 2014-07-11 20:41:38
    Программа кодирования : mkvmerge v6.9.1 (;Blue Panther;) 64bit built on Apr 18 2014 18:23:38
    Библиотека кодирования : libebml v1.3.0 + libmatroska v1.4.1
    DURATION : 01:34:20.960000000
    NUMBER_OF_FRAMES : 176905
    NUMBER_OF_BYTES : 271726080
    _STATISTICS_WRITING_APP : mkvmerge v7.0.0 (;Where We Going;) 64bit built on Jun 9 2014 15:16:27
    _STATISTICS_WRITING_DATE_UTC : 2014-07-10 21:47:02
    _STATISTICS_TAGS : BPS DURATION NUMBER_OF_FRAMES NUMBER_OF_BYTES

    Видео
    Идентификатор : 1
    Формат : AVC
    Формат/Информация : Advanced Video Codec
    Профиль формата : High@L4.0
    Параметр CABAC формата : Да
    Параметр ReFrames формата : 4 кадра
    Идентификатор кодека : V_MPEG4/ISO/AVC
    Продолжительность : 1 ч. 34 м.
    Битрейт : 5103 Кбит/сек
    Ширина : 1916 пикселей
    Высота : 1076 пикселей
    Соотношение сторон : 16:9
    Режим частоты кадров : Постоянный
    Частота кадров : 23,976 кадра/сек
    Цветовое пространство : YUV
    Субдискретизация насыщенности : 4:2:0
    Битовая глубина : 8 бит
    Тип развёртки : Прогрессивная
    Бит/(Пиксели*Кадры) : 0.103
    Размер потока : 3,36 Гбайт (88%)
    Заголовок : -=MediaClub-kaspr=-
    Default : Да
    Forced : Да
    Основные цвета : BT.709
    Характеристики трансфера : BT.709
    Коэффициенты матрицы : BT.709

    Аудио #1
    Идентификатор : 2
    Формат : AC-3
    Формат/Информация : Audio Coding 3
    Расширение режима : CM (complete main)
    Параметр Endianness формата : Big
    Идентификатор кодека : A_AC3
    Продолжительность : 1 ч. 34 м.
    Вид битрейта : Постоянный
    Битрейт : 192 Кбит/сек
    Каналы : 2 канала
    Расположение каналов : Front: L R
    Частота : 48,0 КГц
    Битовая глубина : 16 бит
    Метод сжатия : С потерями
    Размер потока : 130 Мбайт (3%)
    Заголовок : AVO (Живов)
    Язык : Russian
    Default : Нет
    Forced : Да

    Аудио #2
    Идентификатор : 3
    Формат : AC-3
    Формат/Информация : Audio Coding 3
    Расширение режима : CM (complete main)
    Параметр Endianness формата : Big
    Идентификатор кодека : A_AC3
    Продолжительность : 1 ч. 34 м.
    Вид битрейта : Постоянный
    Битрейт : 384 Кбит/сек
    Каналы : 6 каналов
    Расположение каналов : Front: L C R, Side: L R, LFE
    Частота : 48,0 КГц
    Битовая глубина : 16 бит
    Метод сжатия : С потерями
    Размер потока : 259 Мбайт (7%)
    Язык : English
    Default : Нет
    Forced : Нет

    Текст
    Идентификатор : 4
    Формат : UTF-8
    Идентификатор кодека : S_TEXT/UTF8
    Идентификатор кодека/Информация : UTF-8 Plain Text
    Язык : English
    Default : Нет
    Forced : Нет

    Меню
    00:00:00.000 : en:Main Titles; College Dreams
    00:05:41.000 : en:At Church
    00:07:42.000 : en:An Offer
    00:10:17.000 : en:Moving In
    00:12:00.000 : en:Play Goes Solo/Male Bullsh*t
    00:17:54.000 : en:My Check!
    00:20:13.000 : en:Class/Job Hunt
    00:23:53.000 : en:I have a check./Security
    00:26:28.000 : en:Bad Check
    00:30:23.000 : en:Ripped Off
    00:34:03.000 : en:Breaking Up
    00:36:34.000 : en:Extension/The Invisible Man
    00:41:56.000 : en:Paying Debts/Hard Work
    00:45:08.000 : en:Fundraising/Schoolwork
    00:49:56.000 : en:The Rally
    00:55:15.000 : en:Busted
    00:57:14.000 : en:Spreading the Word
    01:01:30.000 : en:The Jam Begins
    01:04:57.000 : en:Let;s Dance
    01:07:59.000 : en:Ladies; Choice
    01:09:48.000 : en:Jama on the Mic
    01:11:17.000 : en:Kid ;N Play
    01:14:31.000 : en:In Pursuit
    01:22:37.000 : en:Farewells
    01:28:11.000 : en:Sorry.
    01:30:19.000 : en:End Credits


    Релиз: |
    Залил: kaspr
    Размер скачиваемого торрента: 3.82 GB (4100097292 Bytes)

    Домашняя вечеринка 2 / House Party 2 (1991) WEB-DL 1080p от MediaClub | A скачать через торрент бесплатно
    загрузка...
    Рейтинг →
     (голосов: 1, оценка 3/5, голосовать можно 1 раз )

    Другие торренты по теме:

  • Домашняя вечеринка / House Party (1990) WEB-DL 1080p | P, A скачать торрент бесплатно


    • Комментарии (0):

      Информация

      Информация

        Посетители, находящиеся в группе Гости, не могут оставлять комментарии в данной новости.

        ↓ Меню



        ↓ Опрос

        А Вы добавили сайт в закладки?
        Да
        Не


        Top 10 за неделю (Фильмы)