.
Авторизация | Регистрация
» » Приключения Форда Ферлейна / The Adventures of Ford Fairlane (1990) DVDRip NovaLan торрент скачать бесплатно




    Приключения Форда Ферлейна / The Adventures of Ford Fairlane (1990) DVDRip NovaLan торрент скачать бесплатно

    Опубликовал: Админ | Дата: 27-02-2015, 11:10 | Просмотров: 252





    Снималось в: США
    Создали в: 20th Century Fox Film Corporation, Silver Pictures
    Категория жанра: Комедия, приключения
    Создали в: 1990

    Время просмотра: 01:41:49

    Перевод текста: Профессиональный многоголосый, авторский

    Оригинальная аудиодорожка: Английская

    Главный режиссер: Ренни Харлин

    Актеры: Эндрю Дайс Клэй, Уэйн Ньютон, Присцилла Пресли, Роберт Инглунд, Моррис Дэй, Лорен Холли, Эд О’Нил, Мэдди Кормэн, Гилберт Готтфрид, Винс Нил

    Сюжет:
    Исходник: DVD5 R2

    Тип релиза: DVDRip

    Контейнер: AVI

    Информация о видео: XviD, 1467 Кбит/с, 704х304
    Информация о звуке: Русский, английский (АС3, 2 ch, 192 Кбит/с)

    Перевод

    Аудио#1: Профессиональный многоголосый
    Аудио#2: Авторский (Гаврилов)
    MediaInfo
    Общее
    Полное имя : D:1АААПриключения Форда Ферлейна.avi
    Формат : AVI
    Формат/Информация : Audio Video Interleave
    Размер файла : 1,47 Гбайт
    Продолжительность : 1 ч. 41 м.
    Общий поток : 2062 Кбит/сек
    Программа кодирования : VirtualDubMod 1.5.10.2 (build 2540/release)
    Библиотека кодирования : VirtualDubMod build 2540/release

    Видео
    Идентификатор : 0
    Формат : MPEG-4 Visual
    Профиль формата : Advanced Simple@L5
    Параметр BVOP формата : 2
    Параметр QPel формата : Нет
    Параметр GMC формата : Без точки перехода
    Параметр матрицы формата : Default (MPEG)
    Идентификатор кодека : XVID
    Идентификатор кодека/Подсказка : XviD
    Продолжительность : 1 ч. 41 м.
    Битрейт : 1467 Кбит/сек
    Ширина : 704 пикселя
    Высота : 304 пикселя
    Соотношение сторон : 2,35:1
    Частота кадров : 23,976 кадра/сек
    Цветовое пространство : YUV
    Субдискретизация насыщенности : 4:2:0
    Битовая глубина : 8 бит
    Тип развёртки : Прогрессивная
    Метод сжатия : С потерями
    Бит/(Пиксели*Кадры) : 0.286
    Размер потока : 1,04 Гбайт (71%)
    Библиотека кодирования : XviD 1.2.1 (UTC 2008-12-04)

    Аудио #1
    Идентификатор : 1
    Формат : AC-3
    Формат/Информация : Audio Coding 3
    Расширение режима : CM (complete main)
    Параметр Endianness формата : Big
    Идентификатор кодека : 2000
    Продолжительность : 1 ч. 41 м.
    Вид битрейта : Постоянный
    Битрейт : 192 Кбит/сек
    Каналы : 2 канала
    Расположение каналов : Front: L R
    Частота : 48,0 КГц
    Битовая глубина : 16 бит
    Метод сжатия : С потерями
    Размер потока : 140 Мбайт (9%)
    Выравнивание : Разделение по промежуткам
    Продолжительность промежутка : 42 мс. (1,00 видеокадр)
    Время предзагрузки промежутка : 500 мс.

    Аудио #2
    Идентификатор : 2
    Формат : AC-3
    Формат/Информация : Audio Coding 3
    Расширение режима : CM (complete main)
    Параметр Endianness формата : Big
    Идентификатор кодека : 2000
    Продолжительность : 1 ч. 41 м.
    Вид битрейта : Постоянный
    Битрейт : 192 Кбит/сек
    Каналы : 2 канала
    Расположение каналов : Front: L R
    Частота : 48,0 КГц
    Битовая глубина : 16 бит
    Метод сжатия : С потерями
    Размер потока : 140 Мбайт (9%)
    Выравнивание : Разделение по промежуткам
    Продолжительность промежутка : 42 мс. (1,00 видеокадр)
    Время предзагрузки промежутка : 500 мс.

    Аудио #3
    Идентификатор : 3
    Формат : AC-3
    Формат/Информация : Audio Coding 3
    Расширение режима : CM (complete main)
    Параметр Endianness формата : Big
    Идентификатор кодека : 2000
    Продолжительность : 1 ч. 41 м.
    Вид битрейта : Постоянный
    Битрейт : 192 Кбит/сек
    Каналы : 2 канала
    Расположение каналов : Front: L R
    Частота : 48,0 КГц
    Битовая глубина : 16 бит
    Метод сжатия : С потерями
    Размер потока : 140 Мбайт (9%)
    Выравнивание : Разделение по промежуткам
    Продолжительность промежутка : 42 мс. (1,00 видеокадр)
    Время предзагрузки промежутка : 500 мс.




    Скриншоты для ознакомления




    Релиз группа:
    Автор рипа:
    Залил: YArl
    Размер скачиваемого торрента: 1.47 GB (1574424576 Bytes)

    Приключения Форда Ферлейна / The Adventures of Ford Fairlane (1990) DVDRip NovaLan торрент скачать бесплатно
    загрузка...
    Рейтинг →
     (голосов: 1, оценка 4/5, голосовать можно 1 раз )

    Другие торренты по теме:

  • Владимир Сутеев - Приключения Пифа. Новые приключения Пифа (1993) PDF от RG Superdetki
  • Приключения Карфагена. Новые приключения Карфагена / Les Naufrages de Carthage. Viva Carthago (2003) DVDRip от KinoRay Sheikn скачать через торрент бесплатно
  • Приключения принца Флоризеля (Клуб самоубийц или приключения титулованной особы) скачать через торрент бесплатно
  • Приключения принца Флоризеля (Клуб самоубийц или приключения титулованной особы) / 1979 / РУ / HDTVRip (720p)
  • Невероятные приключения янки в Африке / Yankee Zulu (1993) DVDRip-AVC
  • Приключения морского дракона / Legend of the Sea (2007) DVDRip от Files-x
  • Смешарики. Новые приключения. Выпуск 1. Шуша (Новогоднее издание) (2012) DVDRip от hitway
  • Смешарики. Новые приключения. Выпуск 1. Шуша - Новогоднее издание (2012) DVD-5


    • Комментарии (0):

      Информация

      Информация

        Посетители, находящиеся в группе Гости, не могут оставлять комментарии в данной новости.

        ↓ Меню



        ↓ Опрос

        А Вы добавили сайт в закладки?
        Да
        Не


        Top 10 за месяц (Фильмы)