.
Авторизация | Регистрация
Хочешь лучшие торренты? Добавь свой email!
Добавить
» » Маппеты 2 / Muppets Most Wanted (2014) BDRip 720p | L2 скачать через торрент бесплатно




    Маппеты 2 / Muppets Most Wanted (2014) BDRip 720p | L2 скачать через торрент бесплатно

    Опубликовал: Админ | Дата: 27-02-2015, 11:10 | Просмотров: 1004



    Детально о кино
    Русское название: Маппеты 2
    Русское название в мировом прокате: Muppets Most Wanted
    Создали в: 2014
    Категория жанра: мюзикл, комедия, криминал, приключения, семейный
    Главный режиссер: Джеймс Бобин
    Актеры: Рики Джервэйс, Тай Бурелл, Тина Фей, Стив Уитмир, Эрик Джейкобсон, Дэйв Гольц, Билл Барретта, Дэвид Рудман, Мэтт Фогель, Питер Линц

    Сюжет фильма: Во время большого мирового турне Маппеты оказываются втянутыми в европейское ограбление...



    Снималось в: США / Babieka, Cinema Vehicle Services, Mandeville Films, Walt Disney Pictures
    Время просмотра: 01:47:20
    Тип перевода: Любительское (двухголосое)

    Файл
    Тип видео: MKV
    Качество фильма: BDRip 720p CHD
    Информация о видео: 4300 kb/s, 1280x720
    Информация о звуке: Russian: AC3, 384 kb/s (6 ch) / English: DTS, 1509 kb/s (6 ch)





    MI

    Format : Matroska
    Format version : Version 4 / Version 2
    File size : 4.64 GiB
    Duration : 1h 47mn
    Overall bit rate : 6 195 Kbps
    Encoded date : UTC 2014-07-13 19:39:30
    Writing application : mkvmerge v6.5.0 (;Isn;t she lovely;) built on Oct 20 2013 12:50:05
    Writing library : libebml v1.3.0 + libmatroska v1.4.1

    Video
    ID : 1
    Format : AVC
    Format/Info : Advanced Video Codec
    Format profile : High@L4.1
    Format settings, CABAC : Yes
    Format settings, ReFrames : 8 frames
    Codec ID : V_MPEG4/ISO/AVC
    Duration : 1h 47mn
    Bit rate : 4 300 Kbps
    Width : 1 280 pixels
    Height : 720 pixels
    Display aspect ratio : 16:9
    Frame rate : 23.976 fps
    Color space : YUV
    Chroma subsampling : 4:2:0
    Bit depth : 8 bits
    Scan type : Progressive
    Bits/(Pixel*Frame) : 0.195
    Stream size : 3.13 GiB (67%)
    Writing library : x264 core 138 r2356 a1d3d17
    Encoding settings : cabac=1 / ref=8 / deblock=1:-3:-3 / analyse=0x3:0x113 / me=umh / subme=10 / psy=1 / psy_rd=1.00:0.05 / mixed_ref=1 / me_range=32 / chroma_me=1 / trellis=2 / 8x8dct=1 / cqm=0 / deadzone=21,11 / fast_pskip=0 / chroma_qp_offset=-2 / threads=18 / lookahead_threads=1 / sliced_threads=0 / nr=0 / decimate=1 / interlaced=0 / bluray_compat=0 / constrained_intra=0 / bframes=5 / b_pyramid=2 / b_adapt=2 / b_bias=0 / direct=3 / weightb=1 / open_gop=0 / weightp=2 / keyint=250 / keyint_min=23 / scenecut=40 / intra_refresh=0 / rc=2pass / mbtree=0 / bitrate=4300 / ratetol=1.0 / qcomp=0.70 / qpmin=0 / qpmax=69 / qpstep=4 / cplxblur=20.0 / qblur=0.5 / ip_ratio=1.40 / pb_ratio=1.30 / aq=2:0.90
    Language : English
    Default : Yes
    Forced : No

    Audio #1
    ID : 2
    Format : AC-3
    Format/Info : Audio Coding 3
    Mode extension : CM (complete main)
    Format settings, Endianness : Big
    Codec ID : A_AC3
    Duration : 1h 47mn
    Bit rate mode : Constant
    Bit rate : 384 Kbps
    Channel(s) : 6 channels
    Channel positions : Front: L C R, Side: L R, LFE
    Sampling rate : 48.0 KHz
    Bit depth : 16 bits
    Compression mode : Lossy
    Stream size : 295 MiB (6%)
    Default : Yes
    Forced : No

    Audio #2
    ID : 3
    Format : DTS
    Format/Info : Digital Theater Systems
    Codec ID : A_DTS
    Duration : 1h 47mn
    Bit rate mode : Constant
    Bit rate : 1 510 Kbps
    Channel(s) : 6 channels
    Channel positions : Front: L C R, Side: L R, LFE
    Sampling rate : 48.0 KHz
    Bit depth : 24 bits
    Compression mode : Lossy
    Stream size : 1.13 GiB (24%)
    Title : dts-core 1509k eng
    Default : No
    Forced : No
    Скриншоты для ознакомления

    Размер скачиваемого торрента: 4.64 GB (4987316720 Bytes)

    Маппеты 2 / Muppets Most Wanted (2014) BDRip 720p | L2 скачать через торрент бесплатно
    загрузка...
    Рейтинг →
     (голосов: 1, оценка 4/5, голосовать можно 1 раз )

    Другие торренты по теме:

  • Маппеты на Манхэттене (Маппеты захватывают Манхэттэн) / The Muppets Take Manhattan / 1984 / ПМ, СТ / BDRip (1080p)
  • Маппеты / The Muppets (2011) BDRip-AVC | iPad
  • Маппеты (1 сезон: 1-4 серии из 13) / The Muppets / 2015 / ПМ (Baibako) / WEB-DLRip
  • Маппеты (1 сезон: 0-5 серии из 13) / The Muppets / 2015 / ЛМ (GladiolusTV) / WEB-DL (1080p)


    • Комментарии (0):

      Информация

      Информация

        Посетители, находящиеся в группе Гости, не могут оставлять комментарии в данной новости.

        ↓ Меню



        ↓ Опрос

        А Вы добавили сайт в закладки?
        Да
        Не


        Top 10 за месяц (Фильмы)