.
Авторизация | Регистрация
Хочешь лучшие торренты? Добавь свой email!
Добавить
» » Библейские сказания / Апостол Павел: Чудо на пути в Дамаск / San Paolo (2000) DVDRip-AVC | P скачать через торрент бесплатно




    Библейские сказания / Апостол Павел: Чудо на пути в Дамаск / San Paolo (2000) DVDRip-AVC | P скачать через торрент бесплатно

    Опубликовал: Админ | Дата: 27-02-2015, 11:10 | Просмотров: 259


    Детально о кино
    Русское название:Библейские сказания/Апостол Павел: Чудо на пути в Дамаск
    Русское название в мировом прокате:San Paolo
    Создали в:2000
    Категория жанра:драма, приключения, история, религия
    Главный режиссер:Роджер Янг
    Актеры:Йоханнес Брандруп, Томас Локйер, Барбора Бобулова, Эннио Фантастичини, Дж. У. Бейли, Джорджо Пазотти, Франко Неро…
    Сюжет фильма:Фильм 12 из 13 “Библейской коллекции”
    Павел изначально не входил в число Двенадцати апостолов, а в юности даже участвовал в преследовании христиан. На пути в Дамаск произошло его чудесное обращение: Павлу явился Христос и призвал его к апостольскому служению. С этого времени Павел, прозванный апостолом язычников, из яростного гонителя превратился в ревностного поборника христианства. Будучи римским гражданином, и имея особые права, он активно проповедовал Евангелия в Палестине, Греции, Малой Азии, Италии и других уголках античного мира, где основал многочисленные христианские общины.

    Снималось в:Италия, Чехия, Германия
    Киностудия:KirchMedia, LuxVide, Radiotelevisione Italiana (RAI)…
    Время просмотра:02:56:46
    Перевод текста:Профессиональный (многоголосый, закадровый)
    Файл
    Кодек для видео:h.264 (MKV)
    Качество фильма:DVDRip-AVC
    Информация о видео:AVC, 1024 x 768, ~2049 kbps
    Информация о звуке:Русский: Dolby Digital 2.0; 192Kbps/Английский: Dolby Digital 2.0; 192Kbps
    Субтитры:Русский (hardsub)
    Семпл
    Скриншоты для ознакомления
    MI
    Общее
    Уникальный идентификатор : 247632894040376484774666381286699096895 (0xBA4C5C4F48759DF3A7EB7B391D82DB3F)
    Полное имя : G: Библейские сказания Библейская коллекция The Bible (1994-2002-2009-2010) Полное коллекционное собраниеБиблейские сказания6. Апостол Павел. Чудо на пути в ДамаскНовая папка12. San Paolo.2000.DVDRip-AVC.mkv
    Формат : Matroska
    Версия формата : Version 4/Version 2
    Размер файла : 3,07 Гбайт
    Продолжительность : 2 ч. 56 м.
    Общий поток : 2482 Кбит/сек
    Дата кодирования : UTC 2014-07-21 07:55:00
    Программа кодирования : mkvmerge v6.9.1 (;Blue Panther;) 64bit built on Apr 18 2014 18:23:38
    Библиотека кодирования : libebml v1.3.0 + libmatroska v1.4.1
    Видео
    Идентификатор : 1
    Формат : AVC
    Формат/Информация : Advanced Video Codec
    Профиль формата : Main@L4.1
    Параметр CABAC формата : Да
    Параметр ReFrames формата : 8 кадров
    Идентификатор кодека : V_MPEG4/ISO/AVC
    Продолжительность : 2 ч. 56 м.
    Битрейт : 2049 Кбит/сек
    Ширина : 1024 пикселя
    Высота : 768 пикселей
    Соотношение сторон : 4:3
    Режим частоты кадров : Постоянный
    Частота кадров : 25,000 кадров/сек
    Цветовое пространство : YUV
    Субдискретизация насыщенности : 4:2:0
    Битовая глубина : 8 бит
    Тип развёртки : Прогрессивная
    Бит/(Пиксели*Кадры) : 0.104
    Размер потока : 2,53 Гбайт (83%)
    Язык : English
    Default : Да
    Forced : Да
    Аудио #1
    Идентификатор : 2
    Формат : AC-3
    Формат/Информация : Audio Coding 3
    Расширение режима : CM (complete main)
    Параметр Endianness формата : Big
    Идентификатор кодека : A_AC3
    Продолжительность : 2 ч. 56 м.
    Вид битрейта : Постоянный
    Битрейт : 192 Кбит/сек
    Каналы : 2 канала
    Расположение каналов : Front: L R
    Частота : 48,0 КГц
    Битовая глубина : 16 бит
    Метод сжатия : С потерями
    Размер потока : 243 Мбайт (8%)
    Default : Да
    Forced : Нет
    Аудио #2
    Идентификатор : 3
    Формат : AC-3
    Формат/Информация : Audio Coding 3
    Расширение режима : CM (complete main)
    Параметр Endianness формата : Big
    Идентификатор кодека : A_AC3
    Продолжительность : 2 ч. 56 м.
    Вид битрейта : Постоянный
    Битрейт : 192 Кбит/сек
    Каналы : 2 канала
    Расположение каналов : Front: L R
    Частота : 48,0 КГц
    Битовая глубина : 16 бит
    Метод сжатия : С потерями
    Размер потока : 243 Мбайт (8%)
    Default : Нет
    Forced : Нет

    Размер скачиваемого торрента: 3.07 GB (3291076097 Bytes)

    Библейские сказания/Апостол Павел: Чудо на пути в Дамаск/San Paolo (2000) DVDRip-AVC | P скачать через торрент бесплатно
    загрузка...
    Рейтинг →
     (голосов: 1, оценка 3/5, голосовать можно 1 раз )

    Другие торренты по теме:

  • Библейские сказания: Эсфирь / The Bible: Esther (1999) DVDRip | P
  • Библейские сказания / Есфирь Прекрасная: Царица-защитница / Esther (1999) DVDRip-AVC | P скачать через торрент бесплатно
  • Библейские сказания / Иисус - Бог и Человек / Jesus (1999) DVDRip-AVC | P скачать через торрент бесплатно
  • Библейские сказания / The Bible. Collection (1993-2002) DVDRip | P


    • Комментарии (0):

      Информация

      Информация

        Посетители, находящиеся в группе Гости, не могут оставлять комментарии в данной новости.

        ↓ Меню



        ↓ Опрос

        А Вы добавили сайт в закладки?
        Да
        Не


        Top 10 за месяц (Фильмы)