.
Авторизация | Регистрация
Хочешь лучшие торренты? Добавь свой email!
Добавить
» » Некая справедливость / A Certain Justice (2014) BDRip 1080p | P2 скачать через торрент бесплатно




    Некая справедливость / A Certain Justice (2014) BDRip 1080p | P2 скачать через торрент бесплатно

    Опубликовал: Админ | Дата: 27-02-2015, 11:10 | Просмотров: 194



    Детально о кино
    Русское название: Некая справедливость
    Русское название в мировом прокате: A Certain Justice
    Создали в: 2014
    Категория жанра:боевик, драма
    Главный режиссер: Джорджо Серафини, Джеймс Койн
    Актеры: Кунг Ле, Дольф Лундгрен, Винни Джонс, Бриана Эвиган, Джанни Капальди, Джеймс С. Бёрнс, Роберт ЛаСардо, Джонатан Ковальски, Джейк Джейкобсон, Скотт Шили

    Сюжет фильма:Вернувшись домой после службы в Ираке, Джон испытывает посттравматическое стрессовое расстройство. То спокойствие, которого ему удалось достичь, рушится в один день, когда он спасает местную девушку от сутенеров…



    Снималось в: США, Hollywood Media Bridge, Picture Perfect Corporation, Voltage Pictures
    Время просмотра: 01:36:48
    Перевод текста:Профессиональный(двухголосый, закадровый)-3-A студия

    Файл
    Качество фильма:BDRip 1080p
    Тип видео: MKV
    Информация о видео: MPEG4/AVC, 1920х1080 (16:9), 8179 Кбит/сек, 23.976 кадра/сек
    Информация о звуке 1: AC3, 2 канала, 192 Кбит/сек |Русский
    Информация о звуке 2: AC3, 6 каналов, 640 Кбит/сек |Английский
    Субтитры: Английские (Full, SDH)

    MediaInfo:
    Общее
    Уникальный идентификатор : 189670206957000685526696530752390239511 (0x8EB1273274F75BB8836F7BC8D0F31517)
    Полное имя : A Certain Justice. (2014) BDRip 1080p.mkv
    Формат : Matroska
    Версия формата : Version 2
    Размер файла : 6,09 Гбайт
    Продолжительность : 1 ч. 36 м.
    Общий поток : 9008 Кбит/сек
    Название фильма : A Certain Justice. 2014
    Дата кодирования : UTC 2014-07-21 13:49:44
    Программа кодирования : mkvmerge v5.8.0 (;No Sleep/Pillow;) built on Sep 2 2012 15:37:04
    Библиотека кодирования : libebml v1.2.3 + libmatroska v1.3.0

    Видео
    Идентификатор : 1
    Формат : AVC
    Формат/Информация : Advanced Video Codec
    Профиль формата : High@L4.1
    Параметр CABAC формата : Да
    Параметр ReFrames формата : 4 кадра
    Идентификатор кодека : V_MPEG4/ISO/AVC
    Продолжительность : 1 ч. 36 м.
    Битрейт : 8179 Кбит/сек
    Ширина : 1920 пикселей
    Высота : 1080 пикселей
    Соотношение сторон : 16:9
    Режим частоты кадров : Постоянный
    Частота кадров : 23,976 кадра/сек
    Цветовое пространство : YUV
    Субдискретизация насыщенности : 4:2:0
    Битовая глубина : 8 бит
    Тип развёртки : Прогрессивная
    Бит/(Пиксели*Кадры) : 0.165
    Размер потока : 5,41 Гбайт (89%)
    Заголовок : RARBG
    Библиотека кодирования : x264 core 142 r2431 ac76440
    Настройки программы : cabac=1/ref=4/deblock=1:0:0/analyse=0x3:0x133/me=umh/subme=8/psy=1/psy_rd=1.00:0.00/mixed_ref=1/me_range=16/chroma_me=1/trellis=1/8x8dct=1/cqm=0/deadzone=21,11/fast_pskip=0/chroma_qp_offset=-2/threads=12/lookahead_threads=2/sliced_threads=0/nr=0/decimate=1/interlaced=0/bluray_compat=0/constrained_intra=0/bframes=3/b_pyramid=2/b_adapt=1/b_bias=0/direct=1/weightb=1/open_gop=0/weightp=2/keyint=250/keyint_min=23/scenecut=40/intra_refresh=0/rc_lookahead=40/rc=2pass/mbtree=1/bitrate=8179/ratetol=1.0/qcomp=0.60/qpmin=0/qpmax=69/qpstep=4/cplxblur=20.0/qblur=0.5/ip_ratio=1.40/aq=1:1.00
    Язык : English
    Default : Да
    Forced : Нет

    Аудио #1
    Идентификатор : 2
    Формат : AC-3
    Формат/Информация : Audio Coding 3
    Расширение режима : CM (complete main)
    Параметр Endianness формата : Big
    Идентификатор кодека : A_AC3
    Продолжительность : 1 ч. 36 м.
    Вид битрейта : Постоянный
    Битрейт : 192 Кбит/сек
    Каналы : 2 канала
    Расположение каналов : Front: L R
    Частота : 48,0 КГц
    Битовая глубина : 16 бит
    Метод сжатия : С потерями
    Размер потока : 133 Мбайт (2%)
    Заголовок : 3-A студия
    Язык : Russian
    Default : Да
    Forced : Нет

    Аудио #2
    Идентификатор : 3
    Формат : AC-3
    Формат/Информация : Audio Coding 3
    Расширение режима : CM (complete main)
    Параметр Endianness формата : Big
    Идентификатор кодека : A_AC3
    Продолжительность : 1 ч. 36 м.
    Вид битрейта : Постоянный
    Битрейт : 640 Кбит/сек
    Каналы : 6 каналов
    Расположение каналов : Front: L C R, Side: L R, LFE
    Частота : 48,0 КГц
    Битовая глубина : 16 бит
    Метод сжатия : С потерями
    Размер потока : 443 Мбайт (7%)
    Заголовок : Eng
    Язык : English
    Default : Нет
    Forced : Нет

    Текст #1
    Идентификатор : 4
    Формат : UTF-8
    Идентификатор кодека : S_TEXT/UTF8
    Идентификатор кодека/Информация : UTF-8 Plain Text
    Заголовок : Full
    Язык : English
    Default : Нет
    Forced : Нет

    Текст #2
    Идентификатор : 5
    Формат : UTF-8
    Идентификатор кодека : S_TEXT/UTF8
    Идентификатор кодека/Информация : UTF-8 Plain Text
    Заголовок : SDH
    Язык : English
    Default : Нет
    Forced : Нет



    Релиз подготовил:
    Размер скачиваемого торрента: 6.09 GB (6540515600 Bytes)

    Некая справедливость/A Certain Justice (2014) BDRip 1080p | P2 скачать через торрент бесплатно
    загрузка...
    Рейтинг →
     (голосов: 1, оценка 5/5, голосовать можно 1 раз )

    Другие торренты по теме:



      Комментарии (0):

      Информация

      Информация

        Посетители, находящиеся в группе Гости, не могут оставлять комментарии в данной новости.

        ↓ Меню



        ↓ Опрос

        А Вы добавили сайт в закладки?
        Да
        Не


        Top 10 за месяц (Фильмы)