.
Авторизация | Регистрация
» » Правдивая ложь / True Lies (1994) DTheaterRip 1080p by msltel | D, P, A скачать через торрент бесплатно




    Правдивая ложь / True Lies (1994) DTheaterRip 1080p by msltel | D, P, A скачать через торрент бесплатно

    Опубликовал: Админ | Дата: 27-02-2015, 11:10 | Просмотров: 238


    Русское название:Правдивая ложь
    Русское название в мировом прокате:True Lies
    Создали в:1994
    Категория жанра:Боевик, триллер
    Снималось в:США, 20th Century Fox Film Corporation, Lightstorm Entertainment
    Главный режиссер:Джеймс Кэмерон
    Актеры:Арнольд Шварценеггер, Джейми Ли Кёртис, Том Арнольд, Билл Пэкстон, Тиа Каррере, Арт Малик, Элиза Душку, Грант Хеслов, Чарлтон Хестон, Маршалл Манеш, Джеймс Аллен, Дитер Раутер, Джейн Моррис, Кэтси Чаппель, Кристина Уайлер, Офер Самра, Пол Барселу, Чарльз А. Тамбурро, Жан-Клод Парашини, Узи Гал, Маджед Ибрахим, Армен Ксаджикян, Майк Акрави, Майк Кэмерон, Чарльз Крэгин, Луай Мардини, Джино Сальвано, Скотт Дотсон, Том Исбелл, Джон Бруно, Такао Комине
    Сюжет фильма:Для своей семьи Гарри Таскер — любящий муж и отец, человек скромный и рассеянный, обыкновенный продавец компьютеров, не вылезающий с работы ни днём, ни ночью. Но лишь немногие знают, что на самом деле Гарри — специальный агент тайной правительственной службы, специализирующийся на особо опасных заданиях, владеющий кучей языков, всеми видами оружия и всеми возможными способами отправки злодеев на тот свет. Агент Таскер и дальше продолжал бы вести двойную жизнь, если бы зловещие арабские террористы не похитили Гарри, а вместе с ним и его ничего не подозревающую жену Хэлен. Но бандиты, к своему несчастью, даже не подозревали с кем связались. И Хэлен узнала, что муж её совсем не компьютерщик, и что она пятнадцать лет прожила с человеком, рядом с которым мускулистый Рэмбо выглядит ребёнком…
    Качество фильма:D-TheaterRip 1080p
    Размер скачиваемого торрента:17.87 ГБ
    Время просмотра:02:21:58
    Информация о видео:MPEG-4 AVC, 10.8 Mбит/с, 1920x820
    Информация о звуке 1:русский, 48 kHz, AC3, 6 ch, 448 kbps avg, Дублированный
    Информация о звуке 2:русский, 48 kHz, DTS, 6 ch, 755 kbps avg, Профессиональный многоголосый, R5, Lizard Cinema Trade
    Информация о звуке 3:русский, 48 kHz, AC3, 6 ch, 448 kbps avg, Профессиональный многоголосый, НТВ+
    Информация о звуке 4:русский, 48 kHz, AC3, 2 ch, 192 kbps avg, Профессиональный многоголосый, Премьер Видео
    Информация о звуке 5:русский, 48 kHz, DTS, 6 ch, 755 kbps avg, Профессиональный многоголосый, Супербит/Киномания
    Информация о звуке 6:русский, 48 kHz, DTS, 6 ch, 1510 kbps avg, Авторский, Андрей Гаврилов
    Внешние файлы
    Информация о звуке:русский, 48 kHz, AC3, 6 ch, 448 kbps avg, Профессиональный многоголосый, R5, Lizard Cinema Trade
    Информация о звуке:русский, 48 kHz, AC3, 6 ch, 448 kbps avg, Профессиональный многоголосый, Супербит/Киномания
    Информация о звуке:русский, 48 kHz, AC3, 6 ch, 448 kbps avg, Авторский, Андрей Гаврилов
    Информация о звуке:английский, 48 kHz, DTS, 6 ch, 1510 kbps avg, Оригинал
    Субтитры:русские (R5)
    Субтитры:русские (Киномания, для слабослышащих)
    Субтитры:английские
    Имеются поименованные главы/чаптеры.
    Исходник|Сравнение с исходником

    Награды
    Оскар, 1995 год
    Номинации (1):
    Лучшие визуальные эффекты
    Золотой глобус, 1995 год
    Победитель (1):
    Лучшая женская роль (комедия или мюзикл) (Джейми Ли Кёртис)
    Премия канала MTV, 1995 год
    Номинации (5):
    Лучшая женская роль (Джейми Ли Кёртис)
    Лучшая комедийная роль (Том Арнольд)
    Лучший танец (Тиа Каррере, Арнольд Шварценеггер)
    Лучшая экшн-сцена
    Лучший поцелуй (Джейми Ли Кёртис, Арнольд Шварценеггер)
    Британская академия, 1995 год
    Номинации (1):
    Лучшие визуальные эффекты
    Сатурн, 1995 год
    Победитель (3):
    Лучший режиссер (Джеймс Кэмерон)
    Лучшая актриса (Джейми Ли Кёртис)
    Лучшие спецэффекты
    Номинации (4):
    Лучший актер (Арнольд Шварценеггер)
    Лучший актер второго плана (Билл Пэкстон)
    Лучшая актриса второго плана (Тиа Каррере)
    Лучший приключенческий фильм, боевик или триллер
    Премия Гильдии актеров, 1995 год
    Номинации (1):
    Лучшая женская роль второго плана (Джейми Ли Кёртис)
    MediaInfo + Лог х264
    Общее
    Полное имя : D:VideoPravdivaja log.1994.DTheaterRip.1080pPravdivaja log.1994.AVO.rus.А.Гаврилов.ac3
    Формат : AC-3
    Формат/Информация : Audio Coding 3
    Размер файла : 455 Мбайт
    Продолжительность : 2 ч. 21 м.
    Режим общего битрейта : Постоянный
    Общий поток : 448 Кбит/сек
    Аудио
    Формат : AC-3
    Формат/Информация : Audio Coding 3
    Расширение режима : CM (complete main)
    Параметр Endianness формата : Big
    Продолжительность : 2 ч. 21 м.
    Вид битрейта : Постоянный
    Битрейт : 448 Кбит/сек
    Каналы : 6 каналов
    Расположение каналов : Front: L C R, Side: L R, LFE
    Частота : 48,0 КГц
    Битовая глубина : 16 бит
    Метод сжатия : С потерями
    Размер потока : 455 Мбайт (100%)
    Общее
    Уникальный идентификатор : 220212315493375123195291345494335814553 (0xA5AB5968A79A9F04B58EB4BFCFD7FB99)
    Полное имя : D:VideoPravdivaja log.1994.DTheaterRip.1080pPravdivaja log.1994.DTheaRip.1080p.mkv
    Формат : Matroska
    Версия формата : Version 4/Version 2
    Размер файла : 15,0 Гбайт
    Продолжительность : 2 ч. 21 м.
    Общий поток : 15,2 Мбит/сек
    Дата кодирования : UTC 2014-07-20 13:59:51
    Программа кодирования : mkvmerge v6.9.1 (;Blue Panther;) 64bit built on Apr 18 2014 18:23:38
    Библиотека кодирования : libebml v1.3.0 + libmatroska v1.4.1
    Видео
    Идентификатор : 1
    Формат : AVC
    Формат/Информация : Advanced Video Codec
    Профиль формата : High@L4.1
    Параметр CABAC формата : Да
    Параметр ReFrames формата : 4 кадра
    Идентификатор кодека : V_MPEG4/ISO/AVC
    Продолжительность : 2 ч. 21 м.
    Битрейт : 10,8 Мбит/сек
    Ширина : 1920 пикселей
    Высота : 820 пикселей
    Соотношение сторон : 2,35:1
    Режим частоты кадров : Постоянный
    Частота кадров : 23,976 кадра/сек
    Цветовое пространство : YUV
    Субдискретизация насыщенности : 4:2:0
    Битовая глубина : 8 бит
    Тип развёртки : Прогрессивная
    Бит/(Пиксели*Кадры) : 0.285
    Размер потока : 10,7 Гбайт (71%)
    Заголовок : BDRip -- STarankov
    Библиотека кодирования : x264 core 142 r2431 ac76440
    Залил: msltel
    Размер скачиваемого торрента: 17.87 GB (19182856372 Bytes)


    Правдивая ложь/True Lies (1994) DTheaterRip 1080p by msltel | D, P, A скачать через торрент бесплатно
    загрузка...
    Рейтинг →
     (голосов: 1, оценка 5/5, голосовать можно 1 раз )

    Другие торренты по теме:



      Комментарии (0):

      Информация

      Информация

        Посетители, находящиеся в группе Гости, не могут оставлять комментарии в данной новости.

        ↓ Меню



        ↓ Опрос

        А Вы добавили сайт в закладки?
        Да
        Не


        Top 10 за неделю (Фильмы)