.
Авторизация | Регистрация
» » Сенат и народ Рима / S.P.Q.R. (1998) SATRip | P скачать через торрент бесплатно




    Сенат и народ Рима / S.P.Q.R. (1998) SATRip | P скачать через торрент бесплатно

    Опубликовал: Админ | Дата: 27-02-2015, 11:10 | Просмотров: 188


    Детально о кино
    Русское название:Сенат и народ Рима
    Русское название в мировом прокате:S.P.Q.R.
    Создали в:1998
    Категория жанра:комедия
    Главный режиссер:Клаудио Риси
    Актеры:Фабрицио Казула, Антонелло Фассари, Нино Фрассика, Эленор Казаленьо, Надя Ринальди, Гуя Йело, Гуидо Никели, Кристиана Капотонди, Лючано Федерико, Мария Монсе, Марио Марандзана, Феличите Мбезеле, Габриела Патриарка, Андреа Личио, Ники Джустини, Морена Де Паскуале, Габриэль Патриарка, Тициана Пини, Фабио Гросси, Альваро Витали, Массимо Джулиани
    Сюжет фильма:
    Древний Рим. Семья адвоката Цезаря Аппио и семья торговца Пифагора Сальвадоре недолюбливают друг друга, пытаясь ужиться вместе в качестве соседей. У Цезаря есть старший сын, который засматривается на дочь Сальвадоре. А младший сын адвоката целыми днями пропадает в доме соседей вместе со старым изобретателем дедушкой Пифагором. Старик все время придумывает что-нибудь из современного мира: то выпиливает из дерева фен и думает, как его применить; то за ужином приходит ему идея добывать огонь с помощью зажигалки. Торговец занимается махинациями в магазине, а Цезарь умудряется совмещать работу и уделять время капризной любовнице…
    Содержание:
    01. I vicini di casa/Новые соседи
    02. Cacciati di casa/Изгнанники
    03. La transferta/Командировка
    04. Fantasmi a Roma/Призраки Рима
    05. Delitto nel condominius/Преступление в доме
    06. I soldi a prestitus/Должок
    07. Cavalli e veleni/Лошади и яды
    08. Lupi Manari e lupi Romani/Оборотни и римские волки
    09. Sequestro di bonona/Похищение
    10. Per un pugno di voti/Право на голос
    11. Roma ladronissima/Воровской Рим
    12. Tutti al mare nostrum/Морские каникулы
    13. I Padri Degli Sposi/Свадебный переполох

    Снималось в:Италия
    Время просмотра:~00:50:00 серия
    Перевод текста:Профессиональный (многоголосый закадровый) НСТ
    Файл
    Кодек для видео:XviD/MP3
    Качество фильма:SATRip
    Информация о видео:MPEG4, XviD, 704x416 (1.692), 25.000 fps, 1 499 Kbps (0.205 bit/pixel)
    Информация о звуке:
    Аудио #1: MP3, 44.1 KHz, 2 ch, 128 Kbps, CBR
    Аудио #2: MP3, 44.1 KHz, 2 ch, 128 Kbps, CBR
    Скриншоты для ознакомления
    MediaInfo
    General
    Complete name : /Senat.i.narod.Rima.(01-13 serii)/Senat.i.narod.Rima.01.seriya.1998.XviD.SATRip.avi
    Format : AVI
    Format/Info : Audio Video Interleave
    File size : 901 MiB
    Duration : 1h 11mn
    Overall bit rate : 1 769 Kbps
    Writing application : VirtualDubModRus 1.5.10.2 (build 2542/release)
    Writing library : VirtualDubMod build 2542/release
    Video
    ID : 0
    Format : MPEG-4 Visual
    Format profile : Advanced Simple@L5
    Format settings, BVOP : 2
    Format settings, QPel : No
    Format settings, GMC : No warppoints
    Format settings, Matrix : Default (H.263)
    Muxing mode : Packed bitstream
    Codec ID : XVID
    Codec ID/Hint : XviD
    Duration : 1h 11mn
    Bit rate : 1 499 Kbps
    Width : 704 pixels
    Height : 416 pixels
    Display aspect ratio : 4:3
    Original display aspect ratio : 1.692
    Frame rate : 25.000 fps
    Color space : YUV
    Chroma subsampling : 4:2:0
    Bit depth : 8 bits
    Scan type : Progressive
    Compression mode : Lossy
    Bits/(Pixel*Frame) : 0.205
    Stream size : 763 MiB (85%)
    Writing library : XviD 64
    Audio #1
    ID : 1
    Format : MPEG Audio
    Format version : Version 1
    Format profile : Layer 3
    Codec ID : 55
    Codec ID/Hint : MP3
    Duration : 1h 11mn
    Bit rate mode : Constant
    Bit rate : 128 Kbps
    Channel(s) : 2 channels
    Sampling rate : 44.1 KHz
    Compression mode : Lossy
    Stream size : 65.0 MiB (7%)
    Alignment : Split accross interleaves
    Interleave, duration : 40 ms (1.00 video frame)
    Interleave, preload duration : 500 ms
    Audio #2
    ID : 2
    Format : MPEG Audio
    Format version : Version 1
    Format profile : Layer 3
    Codec ID : 55
    Codec ID/Hint : MP3
    Duration : 1h 11mn
    Bit rate mode : Constant
    Bit rate : 128 Kbps
    Channel(s) : 2 channels
    Sampling rate : 44.1 KHz
    Compression mode : Lossy
    Stream size : 65.0 MiB (7%)
    Alignment : Split accross interleaves
    Interleave, duration : 40 ms (1.00 video frame)
    Interleave, preload duration : 500 ms

    Размер скачиваемого торрента: 8.45 GB (9072222208 Bytes)

    Сенат и народ Рима/S.P.Q.R. (1998) SATRip | P скачать через торрент бесплатно
    загрузка...
    Рейтинг →
     (голосов: 1, оценка 5/5, голосовать можно 1 раз )

    Другие торренты по теме:



      Комментарии (0):

      Информация

      Информация

        Посетители, находящиеся в группе Гости, не могут оставлять комментарии в данной новости.

        ↓ Меню



        ↓ Опрос

        А Вы добавили сайт в закладки?
        Да
        Не


        Top 10 за неделю (Фильмы)