.
Авторизация | Регистрация
» » Точка убийства / The Kill Point (2007) DVDRip | FOX Crime скачать через торрент бесплатно




    Точка убийства / The Kill Point (2007) DVDRip | FOX Crime скачать через торрент бесплатно

    Опубликовал: Админ | Дата: 27-02-2015, 11:10 | Просмотров: 216


    Детально о кино
    Русское название:Точка убийства
    Русское название в мировом прокате:The Kill Point
    Создали в:2007
    Категория жанра:Стив Шилл, Джошуа Транк
    Главный режиссер:боевик, триллер, драма, криминал
    Актеры:Стив Кирбус, Донни Уолберг, Майкл Хайатт, Джон Легуизамо, Адам Кантор, Джеффри Кантор, Кристин Евангелиста, Дженнифер Феррин, Лео Фицпатрик, Фрэнк Грилло
    Сюжет фильма:
    Джон Легуизамо играет Мистера Вульфа, лидера небольшой группы ветеранов, которая намеривалась ограбить один из крупных банков в Питсбурге. Когда все пошло наперекосяк, они вынуждены были взять более десятка заложников всех слоев общества, в том числе и дочку богатого и влиятельного бизнесмена.
    В этой ситуации Мистер Вульф пытается найти выход из сложившейся ситуации ведя сложную борьбу не только с полицией, но и членами его команды. В то же время он пытается побороть своих демонов доставшихся ему в наследство после войны в Ираке и войны в его собственной семье. Будет ли он настолько сильным, чтобы держать под контролем это сложную ситуацию? И сможет ли он найти выход до того, когда все станет слишком поздно?
    С другой стороны барьера находится ветеран питсбурского департамента полиции, переговорщик Хорст Кэли, которого играет актер Донни Валберг. Хорст должен применить все свое мастерство ведения переговоры, чтобы изменить ситуацию и убедить Мистера Вульфа освободить заложников.
    Содержание:
    01-02: Кто боится г-на Вульфа?/Who;s Afraid of Mr. Wolf?
    03: No Meringue
    04: Pro Patria
    05: Приемные часы/Visiting Hours
    06: Спасение человекообразной обезьяны/The Great Ape Escape
    07-08: Зоопарк дьявола/The Devil;s Zoo

    Снималось в:США
    Киностудия:Lions Gate Television, Mandeville Films, Spike TV
    Время просмотра:42 минуты серия
    Перевод текста:Профессиональный (многоголосый, закадровый) FOX Crime
    Файл
    Кодек для видео:XviD/MP3
    Качество фильма:DVDRip
    Информация о видео:608x336 (1.75:1), 23.976 fps, XviD MPEG-4 1532.59 kbps avg, 0.24 bit/pixel
    Информация о звуке:
    Audio#1: 48 kHz, MPEG Layer 3, 2 ch, ~128.00 kbps avg
    Audio#2: 48 kHz, MPEG Layer 3, 2 ch, ~128.00 kbps avg
    Скриншоты для ознакомления
    Screnshots
    MediaInfo
    General
    Complete name : /Kill Point/kill.point.s01e01-02.dvdrip.rus.eng.novafilm.tv.avi
    Format : AVI
    Format/Info : Audio Video Interleave
    File size : 1.08 GiB
    Duration : 1h 25mn
    Overall bit rate : 1 803 Kbps
    Writing application : VirtualDubMod 1.5.10.2 (build 2540/release)
    Writing library : VirtualDubMod build 2540/release
    Video
    ID : 0
    Format : MPEG-4 Visual
    Format profile : Advanced Simple@L5
    Format settings, BVOP : 1
    Format settings, QPel : No
    Format settings, GMC : No warppoints
    Format settings, Matrix : Custom
    Codec ID : XVID
    Codec ID/Hint : XviD
    Duration : 1h 25mn
    Bit rate : 1 533 Kbps
    Width : 608 pixels
    Height : 336 pixels
    Display aspect ratio : 16:9
    Original display aspect ratio : 16:9
    Frame rate : 23.976 fps
    Color space : YUV
    Chroma subsampling : 4:2:0
    Bit depth : 8 bits
    Scan type : Progressive
    Compression mode : Lossy
    Bits/(Pixel*Frame) : 0.313
    Stream size : 941 MiB (85%)
    Writing library : XviD 1.1.2 (UTC 2006-11-01)
    Audio #1
    ID : 1
    Format : MPEG Audio
    Format version : Version 1
    Format profile : Layer 3
    Mode : Joint stereo
    Codec ID : 55
    Codec ID/Hint : MP3
    Duration : 1h 25mn
    Bit rate mode : Constant
    Bit rate : 128 Kbps
    Channel(s) : 2 channels
    Sampling rate : 48.0 KHz
    Compression mode : Lossy
    Stream size : 78.6 MiB (7%)
    Alignment : Aligned on interleaves
    Interleave, duration : 42 ms (1.00 video frame)
    Interleave, preload duration : 504 ms
    Audio #2
    ID : 2
    Format : MPEG Audio
    Format version : Version 1
    Format profile : Layer 3
    Mode : Joint stereo
    Codec ID : 55
    Codec ID/Hint : MP3
    Duration : 1h 25mn
    Bit rate mode : Constant
    Bit rate : 128 Kbps
    Channel(s) : 2 channels
    Sampling rate : 48.0 KHz
    Compression mode : Lossy
    Stream size : 78.6 MiB (7%)
    Alignment : Aligned on interleaves
    Interleave, duration : 42 ms (1.00 video frame)
    Interleave, preload duration : 504 ms

    Размер скачиваемого торрента: 4.29 GB (4606075434 Bytes)

    Точка убийства/The Kill Point (2007) DVDRip | FOX Crime скачать через торрент бесплатно
    загрузка...
    Рейтинг →
     (голосов: 1, оценка 5/5, голосовать можно 1 раз )

    Другие торренты по теме:

  • Горячая точка / Flashpoint (2008) HDRip | КПК
  • Точка невозврата / Убийца / Point of No Return / The Assassin (1993) НDRip-AVC | D, A
  • Точка взрыва (2013) SatRip
  • Точка взрыва (2013) DVB
  • Исчезающая точка / Vanishing Point (1971) BDRip 1080p | P, L1
  • Точка взрыва (2013) SATRip-AVC
  • Точка возврата (2007) DVD5
  • Точка кипения / Boiling Point (1993) DVDRip от Leon-masl


    • Комментарии (0):

      Информация

      Информация

        Посетители, находящиеся в группе Гости, не могут оставлять комментарии в данной новости.

        ↓ Меню



        ↓ Опрос

        А Вы добавили сайт в закладки?
        Да
        Не


        Top 10 за месяц (Фильмы)