.
Авторизация | Регистрация
Хочешь лучшие торренты? Добавь свой email!
Добавить
» » Туман / The Fog (1980) BDRip-AVC | iPad | L2 скачать через торрент бесплатно




    Туман / The Fog (1980) BDRip-AVC | iPad | L2 скачать через торрент бесплатно

    Опубликовал: Админ | Дата: 27-02-2015, 11:10 | Просмотров: 157


    Туман/The Fog (1980) BDRip-AVC | iPad | L2
    JOHN CARPENTER, who startled the world with ;Halloween,; now brings you the ultimate experience in terror
    Русское название:Туман
    Русское название в мировом прокате:The Fog
    Создали в:1980
    Категория жанра:ужасы
    Главный режиссер:Джон Карпентер
    Актеры:Эдриенн Барбо, Джейми Ли Кёртис, Джанет Ли, Джон Хаусмен, Том Аткинс, Джеймс Каннинг, Чарльз Сайферс, Нэнси Кайс, Ти Митчел, Хэл Холбрук
    Сюжет фильма:
    Маленький рыболовецкий городок одержим духами погибших моряков. Ровно сто лет назад у скал разбилось судно с рыбаками, и вот теперь город окутывает плотный туман, который разрывают буйные призраки прошлого.

    Снималось в:США
    Киностудия:AVCO Embassy Pictures, EDI, Debra Hill Productions
    Время просмотра:01:29:34
    Перевод текста:Русский любительский двухголосый закадровый
    Файл
    Кодек для видео:H.264
    Качество фильма:BDRip 576p
    Информация о видео:1024x436 (2.35:1) at 23.976 fps, AVC at 2200 kbps
    Информация о звуке:
    1: АAС 2.0 110 kbps - Русский любительский двухголосый закадровый
    2: АAС 2.0 110 kbps - Английский
    Субтитры:Отсутствует
    MediaInfo

    General
    Complete name : C:DOWNLOADThe.Fog.1980.576p.L2.m4v
    Format : MPEG-4
    Codec ID : M4V
    File size : 1.53 GiB
    Duration : 1h 29mn
    Overall bit rate mode : Variable
    Overall bit rate : 2 448 Kbps
    Movie name : Туман
    Performer : John Carpenter
    Genre : Horror
    ContentType : Short Film
    Deion : Маленький рыболовецкий городок одержим духами погибших моряков. Ровно сто лет назад у скал разбилось судно с рыбаками, и вот теперь город окутывает плотный туман, который разрывают буйные призраки прошлого…
    Recorded date : UTC 1980-02-08 08:00:00
    Encoded date : UTC 2014-07-23 19:18:49
    Tagged date : UTC 2014-07-24 10:27:47
    Copyright : AVCO Embassy Pictures, EDI, Debra Hill Productions
    Cover : Yes
    Comment : JOHN CARPENTER, who startled the world with ;Halloween,; now brings you the ultimate experience in terror
    ContentRating : mpaa|R|400|
    Title/Sort : The Fog
    LongDeion : Маленький рыболовецкий городок одержим духами погибших моряков. Ровно сто лет назад у скал разбилось судно с рыбаками, и вот теперь город окутывает плотный туман, который разрывают буйные призраки прошлого…
    AppleStoreCatalogID : 557200302
    Vendor : Apple:vendor_id:1980-9801
    Video
    ID : 1
    Format : AVC
    Format/Info : Advanced Video Codec
    Format profile : High@L4.1
    Format settings, CABAC : Yes
    Format settings, ReFrames : 10 frames
    Codec ID : avc1
    Codec ID/Info : Advanced Video Coding
    Duration : 1h 29mn
    Bit rate : 2 218 Kbps
    Maximum bit rate : 13.0 Mbps
    Width : 1 024 pixels
    Height : 436 pixels
    Display aspect ratio : 2.35:1
    Frame rate mode : Constant
    Frame rate : 23.976 fps
    Color space : YUV
    Chroma subsampling : 4:2:0
    Bit depth : 8 bits
    Scan type : Progressive
    Bits/(Pixel*Frame) : 0.207
    Stream size : 1.39 GiB (91%)
    Title : The.Fog.1980
    Language : English
    Encoded date : UTC 2014-07-23 19:18:49
    Tagged date : UTC 2014-07-23 19:19:13
    Matrix coefficients : BT.709
    Audio #1
    ID : 2
    Format : AAC
    Format/Info : Advanced Audio Codec
    Format profile : LC
    Codec ID : 40
    Duration : 1h 29mn
    Bit rate mode : Variable
    Bit rate : 110 Kbps
    Maximum bit rate : 164 Kbps
    Channel(s) : 2 channels
    Channel positions : Front: L R
    Sampling rate : 48.0 KHz
    Compression mode : Lossy
    Stream size : 70.5 MiB (4%)
    Title : DVO R5
    Language : Russian
    Encoded date : UTC 2014-07-23 19:09:30
    Tagged date : UTC 2014-07-23 19:19:13
    Audio #2
    ID : 3
    Format : AAC
    Format/Info : Advanced Audio Codec
    Format profile : LC
    Codec ID : 40
    Duration : 1h 29mn
    Bit rate mode : Variable
    Bit rate : 109 Kbps
    Maximum bit rate : 165 Kbps
    Channel(s) : 2 channels
    Channel positions : Front: L R
    Sampling rate : 48.0 KHz
    Compression mode : Lossy
    Stream size : 69.7 MiB (4%)
    Language : English
    Encoded date : UTC 2014-07-23 19:15:51
    Tagged date : UTC 2014-07-23 19:19:13
    Menu
    ID : 4
    Codec ID : text
    Duration : 1h 29mn
    Encoded date : UTC 2014-07-23 19:19:47
    Tagged date : UTC 2014-07-23 19:19:47
    Bit rate mode : CBR
    x264

    x264 info: frame I:764 Avg QP:14.65 size: 74751
    x264 info: frame P:24463 Avg QP:17.66 size: 28292
    x264 info: frame B:103698 Avg QP:19.85 size: 7155
    x264 info: consecutive B-frames: 1.2% 1.0% 4.2% 10.8% 19.0% 48.7% 7.2% 2.8% 1.8% 1.0% 0.7% 1.2% 0.4%
    x264 info: mb I I16..4: 22.1% 43.0% 34.9%
    x264 info: mb P I16..4: 1.8% 7.1% 2.8% P16..4: 30.5% 31.3% 14.8% 4.9% 1.0% skip: 5.9%
    x264 info: mb B I16..4: 0.2% 1.0% 0.5% B16..8: 30.8% 16.6% 2.4% direct: 5.2% skip:43.4% L0:42.8% L1:39.5% BI:17.7%
    x264 info: 8x8 transform intra:57.9% inter:35.0%
    x264 info: coded y,uvDC,uvAC intra: 81.9% 71.7% 48.8% inter: 21.4% 15.2% 6.3%
    x264 info: i16 v,h,dc,p: 10% 9% 23% 58%
    x264 info: i8 v,h,dc,ddl,ddr,vr,hd,vl,hu: 12% 12% 13% 8% 11% 9% 11% 10% 14%
    x264 info: i4 v,h,dc,ddl,ddr,vr,hd,vl,hu: 38% 11% 11% 5% 7% 7% 7% 6% 9%
    x264 info: i8c dc,h,v,p: 30% 32% 21% 16%
    x264 info: Weighted P-Frames: Y:12.0% UV:7.4%
    x264 info: ref P L0: 46.1% 8.0% 17.0% 8.3% 6.0% 4.7% 3.8% 2.2% 1.9% 1.7% 0.2% 0.0%
    x264 info: ref B L0: 72.5% 10.3% 6.4% 3.2% 2.5% 2.0% 1.6% 1.0% 0.6%
    x264 info: ref B L1: 92.5% 7.5%
    x264 info: kb/s:2218.46
    iTunes tags

    Sort Name: The Fog
    XID: Apple:vendor_id:1980-9801
    Content ID: 557200302
    Copyright: AVCO Embassy Pictures, EDI, Debra Hill Productions
    ScreenWriters: Джон Карпентер, Дебра Хилл, Эдгар Аллан По
    Producers: Дебра Хилл, Бэрри Бернарди, Чарльз Б. Блох
    Director: Джон Карпентер
    Cast: Эдриенн Барбо, Джейми Ли Кёртис, Джанет Ли, Джон Хаусмен, Том Аткинс, Джеймс Каннинг, Чарльз Сайферс, Нэнси Кайс, Ти Митчелл, Хэл Холбрук // Adrienne Barbeau (Stevie Wayne), Jamie Lee Curtis (Elizabeth Solley), Janet Leigh (Kathy Williams), John Houseman (John Houseman), Tom Atkins (Nick Castle), James Canning (Dick Baxter), Charles Cyphers (Dan O;Bannon), Nancy Kyes (Sandy Fadel), Ty Mitchell (Andy), Hal Holbrook (Father Malone), John F. Goff (Al Williams), George Buck Flower (Tommy Wallace), Regina Waldon (Mrs. Kobritz), Jim Haynie (Dockmaster), Darrow Igus (Mel)
    Rating: R
    Long Deion: Маленький рыболовецкий городок одержим духами погибших моряков. Ровно сто лет назад у скал разбилось судно с рыбаками, и вот теперь город окутывает плотный туман, который разрывают буйные призраки прошлого…
    Deion: Маленький рыболовецкий городок одержим духами погибших моряков. Ровно сто лет назад у скал разбилось судно с рыбаками, и вот теперь город окутывает плотный туман, который разрывают буйные призраки прошлого…
    Release Date: 1980-02-08T08:00:00Z
    Genre: Horror
    Artist: John Carpenter
    Name: Туман
    Comments: JOHN CARPENTER, who startled the world with ;Halloween,; now brings you the ultimate experience in terror
    Screenshots




    Залил: gekka
    Размер скачиваемого торрента: 1.53 GB (1645629529 Bytes)

    Туман/The Fog (1980) BDRip-AVC | iPad | L2 скачать через торрент бесплатно
    загрузка...
    Рейтинг →
     (голосов: 1, оценка 3/5, голосовать можно 1 раз )

    Другие торренты по теме:

  • Туман / The Fog (2005) DVDRip-AVC | D
  • Туман / The Fog (1980) HDRip-AVC от Rulya74 | A
  • Туман / The Fog (1980) BDRip 720p от msltel | P, A скачать через торрент бесплатно
  • Туман / The Fog (1980) BDRip 1080p от msltel | P, A
  • Энигматис. Туман Рэйвенвуда. Коллекционное издание (2014) PC
  • Энигматис: Туман Рэйвенвуда. Коллекционное издание (2013) PC скачать через торрент бесплатно
  • Туман / The Fog (1980) BDRip-AVC от MediaClub | P, A
  • Виктор Верхотурцев - Туман


    • Комментарии (0):

      Информация

      Информация

        Посетители, находящиеся в группе Гости, не могут оставлять комментарии в данной новости.

        ↓ Меню



        ↓ Опрос

        А Вы добавили сайт в закладки?
        Да
        Не


        Top 10 за месяц (Фильмы)