.
Авторизация | Регистрация
» » Улица наслаждений / Rue des plaisirs (2001) DVDRip | P скачать через торрент бесплатно




    Улица наслаждений / Rue des plaisirs (2001) DVDRip | P скачать через торрент бесплатно

    Опубликовал: Админ | Дата: 27-02-2015, 11:10 | Просмотров: 201


    Детально о кино
    Русское название:Улица наслаждений
    Русское название в мировом прокате:Rue des plaisirs
    Создали в:2001
    Категория жанра:драма, мелодрама
    Главный режиссер:Патрис Леконт/Patrice Leconte
    Актеры:Патрик Тимсит, Летиция Каста, Венсан Эльбаз, Катрин Муше, Изабель Спад, Беранжер Алло, Патрик Флёрем, Манюэль Бонне, Паскаль Парментье, Долорес Чаплин
    Сюжет фильма:
    Проститутка Марион мечтала в 1945 году стать эстрадной звездой или принцессой. У нее был верный товарищ и ангел-хранитель — Малыш Луи, нашедший смысл жизни в безумной безнадежной привязанности к Марион.
    Он сопровождал ее на опасные свидания с Димитрием — вором, картежником, дельцом черного рынка, которого Марион назначила себе в принцы и за которым охотились бандиты покруче. Они взяли Марион в заложницы, потребовав немыслимый выкуп. Но Луи, бегая с мешком по Парижу, собрал деньги у девочек и спас любимую.
    Однако война еще не закончилась, хотя счастье красавицы было так возможно, так близко.

    Снималось в:Франция, Германия
    Время просмотра:01:26:33
    Перевод текста:Профессиональный (многоголосый, закадровый)
    Файл
    Кодек для видео:XviD/AC3
    Качество фильма:DVDRip
    Информация о видео:MPEG4, XviD, 720x304 (2.35:1), 25.000 fps, 1 068 Kbps (0.195 bit/pixel)
    Информация о звуке:MP3, 48.0 KHz, 2 ch, 128 Kbps, CBR (Russian)
    Скриншоты для ознакомления
    Screenshots
    MediaInfo
    General
    Complete name : Rue.des.plaisirs_745.DVDRip.RUS.avi
    Format : AVI
    Format/Info : Audio Video Interleave
    File size : 745 MiB
    Duration : 1h 26mn
    Overall bit rate : 1 203 Kbps
    Writing application : VirtualDubMod 1.5.4.1 (build 2178/release)
    Writing library : VirtualDubMod build 2178/release
    Video
    ID : 0
    Format : MPEG-4 Visual
    Format profile : Advanced Simple@L5
    Format settings, BVOP : 1
    Format settings, QPel : No
    Format settings, GMC : No warppoints
    Format settings, Matrix : Custom
    Codec ID : XVID
    Codec ID/Hint : XviD
    Duration : 1h 26mn
    Bit rate : 1 068 Kbps
    Width : 720 pixels
    Height : 304 pixels
    Display aspect ratio : 2.35:1
    Frame rate : 25.000 fps
    Color space : YUV
    Chroma subsampling : 4:2:0
    Bit depth : 8 bits
    Scan type : Progressive
    Compression mode : Lossy
    Bits/(Pixel*Frame) : 0.195
    Stream size : 661 MiB (89%)
    Writing library : XviD 73
    Audio
    ID : 1
    Format : MPEG Audio
    Format version : Version 1
    Format profile : Layer 3
    Mode : Joint stereo
    Mode extension : MS Stereo
    Codec ID : 55
    Codec ID/Hint : MP3
    Duration : 1h 26mn
    Bit rate mode : Constant
    Bit rate : 128 Kbps
    Channel(s) : 2 channels
    Sampling rate : 48.0 KHz
    Compression mode : Lossy
    Delay relative to video : 456ms
    Stream size : 79.2 MiB (11%)
    Alignment : Aligned on interleaves
    Interleave, duration : 80 ms (2.00 video frames)
    Interleave, preload duration : 504 ms
    Writing library : LAME3.99r
    Encoding settings : -m j -V 4 -q 2 -lowpass 17 -b 128
    Language : Russian

    Размер скачиваемого торрента: 745.03 MB (781219840 Bytes)

    Улица наслаждений/Rue des plaisirs (2001) DVDRip | P скачать через торрент бесплатно
    загрузка...
    Рейтинг →
     (голосов: 1, оценка 5/5, голосовать можно 1 раз )

    Другие торренты по теме:

  • Паника на улицах / Panic in the Streets (1950) HDRip от NovaLan торрент скачать бесплатно
  • Улица потрошителя / Ripper Street (2012) HDTVRip 720p | NewStudio торрент скачать бесплатно
  • Улица повстанцев / Ustanicka ulica (2012) DVDRip торрент скачать бесплатно
  • Чудо на Первой улице / Чудо c Первой улицы / Miracle on 1st street / 1Beonga-ui gijeok (2007) DVDRip | L1 торрент скачать бесплатно
  • Беспорядки на 42-ой улице / Riot on 42-nd Street (1987) DVDRip от SergV | Р1 торрент скачать бесплатно
  • Кошмар на улице Вязов / A Nightmare on Elm Street (1984) HDRip торрент скачать бесплатно
  • Кошмар на улице Вязов 2: Месть Фредди / A Nightmare on Elm Street Part 2: Freddys Revenge (1985) DVDRip торрент скачать бесплатно
  • Дети с жестоких улиц Рима / I ragazzi della Roma violenta (1976) DVDRip | L1 торрент скачать бесплатно


    • Комментарии (0):

      Информация

      Информация

        Посетители, находящиеся в группе Гости, не могут оставлять комментарии в данной новости.

        ↓ Меню



        ↓ Опрос

        А Вы добавили сайт в закладки?
        Да
        Не


        Top 10 за неделю (Фильмы)