.
Авторизация | Регистрация
» » Быть Мэри Джейн / Being Mary Jane (2014) HDTVRip от Paravozik скачать через торрент бесплатно




    Быть Мэри Джейн / Being Mary Jane (2014) HDTVRip от Paravozik скачать через торрент бесплатно

    Опубликовал: Админ | Дата: 27-02-2015, 11:10 | Просмотров: 206

    Быть Мэри Джейн/Being Mary Jane
    Создали в: 2014
    Снималось в: США | BTE
    Категория жанра: комедия
    Время просмотра: ~01:02:00
    Перевод текста: любительский двухголосый закадровыйRG.Paravozik
    Субтитры: нетГлавный режиссёры: Салим Акил и др.
    Актеры: Гэбриэл Юнион, Лиза Видал, Маргарет Эйвери, Омари Хардвик, Латерша Роуз, Ричард Брукс, Рэйвен Гудвин, Аарон Д. Спирс, Ричард Раундтри и др.
    Описнаие: Быть Мэри Джейн - американский телесериал с Габриэль Юнион в главной роли, созданный Марой Брок Акил, который стартовал на кабельном канале BET. В центре сюжета находится профессионально успешная ведущая собственного ток-шоу Мэри Джейн Пол, которая пытается совместить карьеру с заботой о семье и поиске мужчины, который сможет быть рядом с ней.Качество фильма: HDTVRip
    Тип видео: AVI
    Информация о видео кодек: XviD
    Информация о звуке кодек: MP3
    Информация о видео: 720x400 (16:9), 23.976 fps, 1500 kbps, 0.217 bit/pixel
    Информация о звуке 1: 48 kHz, 2 ch, 128 kbps -Russian
    Информация о звуке 2: 48 kHz, 2 ch, 128 kbps -EnglishРелиз:
    при поддержке
    Перевод текста:Марина Гринь и Сергей Битюцкий.
    Озвучание:Михаил Алексеев и Валерия Азарова.
    Сведение и мастеринг:AllenWalker.
    Работа с видео:761OPiter.Сэмпл|TVRage
    Список серий

    01. Pilot/Пилот.
    02. Storm Advisory.
    03. Girls Night In.
    04. The Huxtables Have Fallen.
    05. Mixed Messages.
    06. Exposed.
    07. Hindsight is 20/40.
    08. Blindsided.
    09. Uber Love.

    Скриншоты для ознакомления
    MI

    Общее:
    Формат : AVI
    Формат/Информация : Audio Video Interleave
    Размер файла : 782 Мбайт
    Продолжительность : 1 ч. 1 м.
    Общий поток : 1770 Кбит/сек
    Программа кодирования : VirtualDubMod 1.5.10.2 (build 2540/release)
    Библиотека кодирования : VirtualDubMod build 2540/release
    Информация о видео:
    Формат : MPEG-4 Visual
    Профиль формата : Advanced Simple@L5
    Параметр BVOP формата : 2
    Параметр QPel формата : Нет
    Параметр GMC формата : Без точки перехода
    Параметр матрицы формата : Default (MPEG)
    Идентификатор кодека : XVID
    Идентификатор кодека/Подсказка : XviD
    Продолжительность : 1 ч. 1 м.
    Битрейт : 1500 Кбит/сек
    Ширина : 720 пикселей
    Высота : 400 пикселей
    Соотношение сторон : 16:9
    Частота кадров : 23,976 кадра/сек
    Цветовое пространство : YUV
    Субдискретизация насыщенности : 4:2:0
    Битовая глубина : 8 бит
    Тип развёртки : Прогрессивная
    Метод сжатия : С потерями
    Бит/(Пиксели*Кадры) : 0.217
    Размер потока : 663 Мбайт (85%)
    Библиотека кодирования : XviD 1.2.1 (UTC 2008-12-04)
    Информация о звуке #1:
    Формат : MPEG Audio
    Версия формата : Version 1
    Профиль формата : Layer 3
    Режим : Joint stereo
    Расширение режима : MS Stereo
    Идентификатор кодека : 55
    Идентификатор кодека/Подсказка : MP3
    Продолжительность : 1 ч. 1 м.
    Вид битрейта : Постоянный
    Битрейт : 128 Кбит/сек
    Каналы : 2 канала
    Частота : 48,0 КГц
    Метод сжатия : С потерями
    Размер потока : 56,5 Мбайт (7%)
    Выравнивание : Соединение по промежуткам
    Продолжительность промежутка : 42 мс. (1,00 видеокадр)
    Время предзагрузки промежутка : 504 мс.
    Информация о звуке #2:
    Формат : MPEG Audio
    Версия формата : Version 1
    Профиль формата : Layer 3
    Идентификатор кодека : 55
    Идентификатор кодека/Подсказка : MP3
    Продолжительность : 1 ч. 1 м.
    Вид битрейта : Постоянный
    Битрейт : 128 Кбит/сек
    Каналы : 2 канала
    Частота : 48,0 КГц
    Метод сжатия : С потерями
    Размер потока : 56,5 Мбайт (7%)
    Выравнивание : Соединение по промежуткам
    Продолжительность промежутка : 42 мс. (1,00 видеокадр)
    Время предзагрузки промежутка : 504 мс.
    Библиотека кодирования : LAME3.99r
    Настройки программы : -m s -V 4 -q 2 -lowpass 17 -b 128

    Размер скачиваемого торрента: 4.88 GB (5242030080 Bytes)

    Быть Мэри Джейн/Being Mary Jane (2014) HDTVRip от Paravozik скачать через торрент бесплатно
    загрузка...
    Рейтинг →
     (голосов: 1, оценка 3/5, голосовать можно 1 раз )

    Другие торренты по теме:

  • Быть Мэри Джейн / Being Mary Jane (2015) HDTVRip | RG.Paravozik скачать торрент бесплатно
  • Быть Мэри Джейн / Being Mary Jane (2015) HDTVRip | RG.Paravozik скачать торрент бесплатно


    • Комментарии (0):

      Информация

      Информация

        Посетители, находящиеся в группе Гости, не могут оставлять комментарии в данной новости.

        ↓ Меню



        ↓ Опрос

        А Вы добавили сайт в закладки?
        Да
        Не


        Top 10 за неделю (Фильмы)