.
Авторизация | Регистрация
» » Криминальный роман / Romanzo criminale - La serie (2010) BDRip 720p от HDClub скачать через торрент бесплатно




    Криминальный роман / Romanzo criminale - La serie (2010) BDRip 720p от HDClub скачать через торрент бесплатно

    Опубликовал: Админ | Дата: 27-02-2015, 11:10 | Просмотров: 173


    Детально о кино
    Русское название:Криминальный роман
    Русское название в мировом прокате:Romanzo criminale - La serie
    Создали в:2010
    Категория жанра:триллер, драма, криминал
    Главный режиссер:Стефано Соллима
    Актеры:Роберто Инфасчелли, Виничио Маркиони, Мауро Мекони, Эдоардо Пеше, Алессандро Ройа, Андреа Сарторетти, Даниэла Вирджилио, Марко Боччи, Джорджо Капуто
    Сюжет фильма:
    Уголовник, известный как Ливанец, мечтает стать главой преступного мира в Риме. Для осуществления своих планов он набирает банду безжалостных и высоко организованных соратников. Более двадцати пяти лет они сотрясают мирную жизнь города, занимаясь терроризмом, похищением людей и коррупцией в высших эшелонах власти. За эти годы лейтенант полиции нападает на след банды.
    Дополнительно
    За запись звука спасибо veryserg
    Исходный диск приобретен в рамках сервиса Копилка: Помоги с Blu-ray. Благодарим: HPotter, igorlit, Puris, Tristan (HDClub)

    MI
    Общее
    Уникальный идентификатор : 174877367222895107240383915238571956225 (0x839027E35CA723959F84938BE490D801)
    Полное имя : Romanzo.Criminale.La.Serie.S02.720p.BluRay.Rus.Ita.HDCLUB-SbRRomanzo.Criminale.La.Serie.S02E01.Episodio.01.720p.BluRay.Rus.Ita.HDCLUB-SbR.mkv
    Формат : Matroska
    Версия формата : Version 4/Version 2
    Размер файла : 5,45 Гбайт
    Продолжительность : 51 м.
    Общий поток : 15,2 Мбит/сек
    Дата кодирования : UTC 2014-07-15 07:39:08
    Программа кодирования : mkvmerge v7.0.0 (;Where We Going;) 64bit built on Jun 9 2014 15:16:27
    Библиотека кодирования : libebml v1.3.0 + libmatroska v1.4.1
    DURATION : 00:51:15.200000000
    NUMBER_OF_FRAMES : 96100
    NUMBER_OF_BYTES : 73804800
    _STATISTICS_WRITING_APP : mkvmerge v7.0.0 (;Where We Going;) 64bit built on Jun 9 2014 15:16:27
    _STATISTICS_WRITING_DATE_UTC : 2014-07-15 07:39:08
    _STATISTICS_TAGS : BPS DURATION NUMBER_OF_FRAMES NUMBER_OF_BYTES
    Видео
    Идентификатор : 1
    Формат : AVC
    Формат/Информация : Advanced Video Codec
    Профиль формата : High@L4.1
    Параметр CABAC формата : Да
    Параметр ReFrames формата : 9 кадров
    Идентификатор кодека : V_MPEG4/ISO/AVC
    Продолжительность : 51 м.
    Битрейт : 14,1 Мбит/сек
    Ширина : 1280 пикселей
    Высота : 720 пикселей
    Соотношение сторон : 16:9
    Режим частоты кадров : Постоянный
    Частота кадров : 25,000 кадров/сек
    Цветовое пространство : YUV
    Субдискретизация насыщенности : 4:2:0
    Битовая глубина : 8 бит
    Тип развёртки : Прогрессивная
    Бит/(Пиксели*Кадры) : 0.611
    Размер потока : 5,04 Гбайт (93%)
    Заголовок : Romanzo Criminale - La Serie. Stagione 02 Episodio 01 ITA
    Библиотека кодирования : x264 core 142 r2389kMod 956c8d8
    Настройки программы : cabac=1/ref=9/deblock=1:-3:-3/analyse=0x3:0x133/me=umh/subme=10/psy=1/fade_compensate=0.00/psy_rd=1.00:0.00/mixed_ref=1/me_range=32/chroma_me=1/trellis=2/8x8dct=1/cqm=0/deadzone=21,11/fast_pskip=1/chroma_qp_offset=-2/threads=16/lookahead_threads=2/sliced_threads=0/nr=0/decimate=1/interlaced=0/bluray_compat=0/constrained_intra=0/fgo=0/bframes=7/b_pyramid=2/b_adapt=2/b_bias=0/direct=3/weightb=1/open_gop=0/weightp=2/keyint=250/keyint_min=23/scenecut=40/intra_refresh=0/rc_lookahead=40/rc=crf/mbtree=0/crf=16.5000/qcomp=0.65/qpmin=0/qpmax=40/qpstep=4/vbv_maxrate=50000/vbv_bufsize=50000/crf_max=0.0/nal_hrd=none/filler=0/ip_ratio=1.25/pb_ratio=1.25/aq=1:0.60
    Язык : Italian
    Default : Да
    Forced : Нет
    DURATION : 00:51:15.640000000
    NUMBER_OF_FRAMES : 76891
    NUMBER_OF_BYTES : 5526025841
    _STATISTICS_WRITING_APP : mkvmerge v7.0.0 (;Where We Going;) 64bit built on Jun 9 2014 15:16:27
    _STATISTICS_WRITING_DATE_UTC : 2014-07-15 07:39:08
    _STATISTICS_TAGS : BPS DURATION NUMBER_OF_FRAMES NUMBER_OF_BYTES
    Аудио #1
    Идентификатор : 2
    Формат : AC-3
    Формат/Информация : Audio Coding 3
    Расширение режима : CM (complete main)
    Параметр Endianness формата : Big
    Идентификатор кодека : A_AC3
    Продолжительность : 51 м.
    Вид битрейта : Постоянный
    Битрейт : 192 Кбит/сек
    Каналы : 2 канала
    Расположение каналов : Front: L R
    Частота : 48,0 КГц
    Битовая глубина : 16 бит
    Метод сжатия : С потерями
    Размер потока : 70,4 Мбайт (1%)
    Заголовок : AC3 2.0 @ 192 kbps - Sony Turbo
    Язык : Russian
    Default : Да
    Forced : Нет
    Аудио #2
    Идентификатор : 3
    Формат : AC-3
    Формат/Информация : Audio Coding 3
    Расширение режима : CM (complete main)
    Параметр Endianness формата : Big
    Идентификатор кодека : A_AC3
    Продолжительность : 51 м.
    Вид битрейта : Постоянный
    Битрейт : 640 Кбит/сек
    Каналы : 6 каналов
    Расположение каналов : Front: L C R, Side: L R, LFE
    Частота : 48,0 КГц
    Битовая глубина : 16 бит
    Метод сжатия : С потерями
    Размер потока : 235 Мбайт (4%)
    Заголовок : AC3 5.1 @ 640 kbps
    Язык : Italian
    Default : Нет
    Forced : Нет
    Текст #1
    Идентификатор : 4
    Формат : UTF-8
    Идентификатор кодека : S_TEXT/UTF8
    Идентификатор кодека/Информация : UTF-8 Plain Text
    Язык : English
    Default : Нет
    Forced : Нет
    Текст #2
    Идентификатор : 5
    Формат : UTF-8
    Идентификатор кодека : S_TEXT/UTF8
    Идентификатор кодека/Информация : UTF-8 Plain Text
    Язык : Italian
    Default : Нет
    Forced : Нет
    Общее
    Уникальный идентификатор : 205621218757603390857143235437181979829 (0x9AB134CC30367A1DBC51F31C50FECCB5)
    Полное имя : Romanzo.Criminale.La.Serie.S02.720p.BluRay.Rus.Ita.HDCLUB-SbRRomanzo.Criminale.La.Serie.S02E02.Episodio.02.720p.BluRay.Rus.Ita.HDCLUB-SbR.mkv
    Формат : Matroska
    Версия формата : Version 4/Version 2
    Размер файла : 6,38 Гбайт
    Продолжительность : 55 м.
    Общий поток : 16,6 Мбит/сек
    Дата кодирования : UTC 2014-07-15 07:42:34
    Программа кодирования : mkvmerge v7.0.0 (;Where We Going;) 64bit built on Jun 9 2014 15:16:27
    Библиотека кодирования : libebml v1.3.0 + libmatroska v1.4.1
    DURATION : 00:55:09.696000000
    NUMBER_OF_FRAMES : 103428
    NUMBER_OF_BYTES : 79432704
    _STATISTICS_WRITING_APP : mkvmerge v7.0.0 (;Where We Going;) 64bit built on Jun 9 2014 15:16:27
    _STATISTICS_WRITING_DATE_UTC : 2014-07-15 07:42:34
    _STATISTICS_TAGS : BPS DURATION NUMBER_OF_FRAMES NUMBER_OF_BYTES
    Видео
    Идентификатор : 1
    Формат : AVC
    Формат/Информация : Advanced Video Codec
    Профиль формата : High@L4.1
    Параметр CABAC формата : Да
    Параметр ReFrames формата : 9 кадров
    Идентификатор кодека : V_MPEG4/ISO/AVC
    Продолжительность : 55 м.
    Битрейт : 15,4 Мбит/сек
    Ширина : 1280 пикселей
    Высота : 720 пикселей
    Соотношение сторон : 16:9
    Режим частоты кадров : Постоянный
    Частота кадров : 25,000 кадров/сек
    Цветовое пространство : YUV
    Субдискретизация насыщенности : 4:2:0
    Битовая глубина : 8 бит
    Тип развёртки : Прогрессивная
    Бит/(Пиксели*Кадры) : 0.668
    Размер потока : 5,93 Гбайт (93%)
    Заголовок : Romanzo Criminale - La Serie. Stagione 02 Episodio 02 ITA
    Библиотека кодирования : x264 core 142 r2389kMod 956c8d8
    Настройки программы : cabac=1/ref=9/deblock=1:-3:-3/analyse=0x3:0x133/me=umh/subme=10/psy=1/fade_compensate=0.00/psy_rd=1.00:0.00/mixed_ref=1/me_range=32/chroma_me=1/trellis=2/8x8dct=1/cqm=0/deadzone=21,11/fast_pskip=1/chroma_qp_offset=-2/threads=16/lookahead_threads=2/sliced_threads=0/nr=0/decimate=1/interlaced=0/bluray_compat=0/constrained_intra=0/fgo=0/bframes=7/b_pyramid=2/b_adapt=2/b_bias=0/direct=3/weightb=1/open_gop=0/weightp=2/keyint=250/keyint_min=23/scenecut=40/intra_refresh=0/rc_lookahead=40/rc=crf/mbtree=0/crf=16.5000/qcomp=0.65/qpmin=0/qpmax=40/qpstep=4/vbv_maxrate=50000/vbv_bufsize=50000/crf_max=0.0/nal_hrd=none/filler=0/ip_ratio=1.25/pb_ratio=1.25/aq=1:0.60
    Язык : Italian
    Default : Да
    Forced : Нет
    DURATION : 00:55:10.240000000
    NUMBER_OF_FRAMES : 82756
    NUMBER_OF_BYTES : 6507647988
    _STATISTICS_WRITING_APP : mkvmerge v7.0.0 (;Where We Going;) 64bit built on Jun 9 2014 15:16:27
    _STATISTICS_WRITING_DATE_UTC : 2014-07-15 07:42:34
    _STATISTICS_TAGS : BPS DURATION NUMBER_OF_FRAMES NUMBER_OF_BYTES
    Аудио #1
    Идентификатор : 2
    Формат : AC-3
    Формат/Информация : Audio Coding 3
    Расширение режима : CM (complete main)
    Параметр Endianness формата : Big
    Идентификатор кодека : A_AC3
    Продолжительность : 55 м.
    Вид битрейта : Постоянный
    Битрейт : 192 Кбит/сек
    Каналы : 2 канала
    Расположение каналов : Front: L R
    Частота : 48,0 КГц
    Битовая глубина : 16 бит
    Метод сжатия : С потерями
    Размер потока : 75,8 Мбайт (1%)
    Заголовок : AC3 2.0 @ 192 kbps - Sony Turbo
    Язык : Russian
    Default : Да
    Forced : Нет
    Аудио #2
    Идентификатор : 3
    Формат : AC-3
    Формат/Информация : Audio Coding 3
    Расширение режима : CM (complete main)
    Параметр Endianness формата : Big
    Идентификатор кодека : A_AC3
    Продолжительность : 55 м.
    Вид битрейта : Постоянный
    Битрейт : 640 Кбит/сек
    Каналы : 6 каналов
    Расположение каналов : Front: L C R, Side: L R, LFE
    Частота : 48,0 КГц
    Битовая глубина : 16 бит
    Метод сжатия : С потерями
    Размер потока : 253 Мбайт (4%)
    Заголовок : AC3 5.1 @ 640 kbps
    Язык : Italian
    Default : Нет
    Forced : Нет
    Текст #1
    Идентификатор : 4
    Формат : UTF-8
    Идентификатор кодека : S_TEXT/UTF8
    Идентификатор кодека/Информация : UTF-8 Plain Text
    Язык : English
    Default : Нет
    Forced : Нет
    Текст #2
    Идентификатор : 5
    Формат : UTF-8
    Идентификатор кодека : S_TEXT/UTF8
    Идентификатор кодека/Информация : UTF-8 Plain Text
    Язык : Italian
    Default : Нет
    Forced : Нет
    Общее
    Уникальный идентификатор : 218413165288378561557187905117394015050 (0xA450D8748156A8F5951C6C5778F3934A)
    Полное имя : Romanzo.Criminale.La.Serie.S02.720p.BluRay.Rus.Ita.HDCLUB-SbRRomanzo.Criminale.La.Serie.S02E03.Episodio.03.720p.BluRay.Rus.Ita.HDCLUB-SbR.mkv
    Формат : Matroska
    Версия формата : Version 4/Version 2
    Размер файла : 6,10 Гбайт
    Продолжительность : 54 м.
    Общий поток : 15,9 Мбит/сек
    Дата кодирования : UTC 2014-07-15 07:56:09
    Программа кодирования : mkvmerge v7.0.0 (;Where We Going;) 64bit built on Jun 9 2014 15:16:27
    Библиотека кодирования : libebml v1.3.0 + libmatroska v1.4.1
    DURATION : 00:54:48.672000000
    NUMBER_OF_FRAMES : 102771
    NUMBER_OF_BYTES : 78928128
    _STATISTICS_WRITING_APP : mkvmerge v7.0.0 (;Where We Going;) 64bit built on Jun 9 2014 15:16:27
    _STATISTICS_WRITING_DATE_UTC : 2014-07-15 07:56:09
    _STATISTICS_TAGS : BPS DURATION NUMBER_OF_FRAMES NUMBER_OF_BYTES
    Видео
    Идентификатор : 1
    Формат : AVC
    Формат/Информация : Advanced Video Codec
    Профиль формата : High@L4.1
    Параметр CABAC формата : Да
    Параметр ReFrames формата : 9 кадров
    Идентификатор кодека : V_MPEG4/ISO/AVC
    Продолжительность : 54 м.
    Битрейт : 14,8 Мбит/сек
    Ширина : 1280 пикселей
    Высота : 720 пикселей
    Соотношение сторон : 16:9
    Режим частоты кадров : Постоянный
    Частота кадров : 25,000 кадров/сек
    Цветовое пространство : YUV
    Субдискретизация насыщенности : 4:2:0
    Битовая глубина : 8 бит
    Тип развёртки : Прогрессивная
    Бит/(Пиксели*Кадры) : 0.642
    Размер потока : 5,66 Гбайт (93%)
    Заголовок : Romanzo Criminale - La Serie. Stagione 02 Episodio 03 ITA
    Библиотека кодирования : x264 core 142 r2389kMod 956c8d8
    Настройки программы : cabac=1/ref=9/deblock=1:-3:-3/analyse=0x3:0x133/me=umh/subme=10/psy=1/fade_compensate=0.00/psy_rd=1.00:0.00/mixed_ref=1/me_range=32/chroma_me=1/trellis=2/8x8dct=1/cqm=0/deadzone=21,11/fast_pskip=1/chroma_qp_offset=-2/threads=16/lookahead_threads=2/sliced_threads=0/nr=0/decimate=1/interlaced=0/bluray_compat=0/constrained_intra=0/fgo=0/bframes=7/b_pyramid=2/b_adapt=2/b_bias=0/direct=3/weightb=1/open_gop=0/weightp=2/keyint=250/keyint_min=23/scenecut=40/intra_refresh=0/rc_lookahead=40/rc=crf/mbtree=0/crf=16.5000/qcomp=0.65/qpmin=0/qpmax=40/qpstep=4/vbv_maxrate=50000/vbv_bufsize=50000/crf_max=0.0/nal_hrd=none/filler=0/ip_ratio=1.25/pb_ratio=1.25/aq=1:0.60
    Язык : Italian
    Default : Да
    Forced : Нет
    DURATION : 00:54:49.240000000
    NUMBER_OF_FRAMES : 82231
    NUMBER_OF_BYTES : 6209946899
    _STATISTICS_WRITING_APP : mkvmerge v7.0.0 (;Where We Going;) 64bit built on Jun 9 2014 15:16:27
    _STATISTICS_WRITING_DATE_UTC : 2014-07-15 07:56:09
    _STATISTICS_TAGS : BPS DURATION NUMBER_OF_FRAMES NUMBER_OF_BYTES
    Аудио #1
    Идентификатор : 2
    Формат : AC-3
    Формат/Информация : Audio Coding 3
    Расширение режима : CM (complete main)
    Параметр Endianness формата : Big
    Идентификатор кодека : A_AC3
    Продолжительность : 54 м.
    Вид битрейта : Постоянный
    Битрейт : 192 Кбит/сек
    Каналы : 2 канала
    Расположение каналов : Front: L R
    Частота : 48,0 КГц
    Битовая глубина : 16 бит
    Метод сжатия : С потерями
    Размер потока : 75,3 Мбайт (1%)
    Заголовок : AC3 2.0 @ 192 kbps - Sony Turbo
    Язык : Russian
    Default : Да
    Forced : Нет
    Аудио #2
    Идентификатор : 3
    Формат : AC-3
    Формат/Информация : Audio Coding 3
    Расширение режима : CM (complete main)
    Параметр Endianness формата : Big
    Идентификатор кодека : A_AC3
    Продолжительность : 54 м.
    Вид битрейта : Постоянный
    Битрейт : 640 Кбит/сек
    Каналы : 6 каналов
    Расположение каналов : Front: L C R, Side: L R, LFE
    Частота : 48,0 КГц
    Битовая глубина : 16 бит
    Метод сжатия : С потерями
    Размер потока : 251 Мбайт (4%)
    Заголовок : AC3 5.1 @ 640 kbps
    Язык : Italian
    Default : Нет
    Forced : Нет
    Текст #1
    Идентификатор : 4
    Формат : UTF-8
    Идентификатор кодека : S_TEXT/UTF8
    Идентификатор кодека/Информация : UTF-8 Plain Text
    Язык : English
    Default : Нет
    Forced : Нет
    Текст #2
    Идентификатор : 5
    Формат : UTF-8
    Идентификатор кодека : S_TEXT/UTF8
    Идентификатор кодека/Информация : UTF-8 Plain Text
    Язык : Italian
    Default : Нет
    Forced : Нет
    Общее
    Уникальный идентификатор : 199918777951225956938108629248301082506 (0x9666F4C25313CF65965E014D181C278A)
    Полное имя : Romanzo.Criminale.La.Serie.S02.720p.BluRay.Rus.Ita.HDCLUB-SbRRomanzo.Criminale.La.Serie.S02E04.Episodio.04.720p.BluRay.Rus.Ita.HDCLUB-SbR.mkv
    Формат : Matroska
    Версия формата : Version 4/Version 2
    Размер файла : 5,81 Гбайт
    Продолжительность : 54 м.
    Общий поток : 15,4 Мбит/сек
    Дата кодирования : UTC 2014-07-15 08:04:51
    Программа кодирования : mkvmerge v7.0.0 (;Where We Going;) 64bit built on Jun 9 2014 15:16:27
    Библиотека кодирования : libebml v1.3.0 + libmatroska v1.4.1
    DURATION : 00:54:00.736000000
    NUMBER_OF_FRAMES : 101273
    NUMBER_OF_BYTES : 77777664
    _STATISTICS_WRITING_APP : mkvmerge v7.0.0 (;Where We Going;) 64bit built on Jun 9 2014 15:16:27
    _STATISTICS_WRITING_DATE_UTC : 2014-07-15 08:04:51
    _STATISTICS_TAGS : BPS DURATION NUMBER_OF_FRAMES NUMBER_OF_BYTES
    Видео
    Идентификатор : 1
    Формат : AVC
    Формат/Информация : Advanced Video Codec
    Профиль формата : High@L4.1
    Параметр CABAC формата : Да
    Параметр ReFrames формата : 9 кадров
    Идентификатор кодека : V_MPEG4/ISO/AVC
    Продолжительность : 54 м.
    Битрейт : 14,3 Мбит/сек
    Ширина : 1280 пикселей
    Высота : 720 пикселей
    Соотношение сторон : 16:9
    Режим частоты кадров : Постоянный
    Частота кадров : 25,000 кадров/сек
    Цветовое пространство : YUV
    Субдискретизация насыщенности : 4:2:0
    Битовая глубина : 8 бит
    Тип развёртки : Прогрессивная
    Бит/(Пиксели*Кадры) : 0.619
    Размер потока : 5,38 Гбайт (93%)
    Заголовок : Romanzo Criminale - La Serie. Stagione 02 Episodio 04 ITA
    Библиотека кодирования : x264 core 142 r2389kMod 956c8d8
    Настройки программы : cabac=1/ref=9/deblock=1:-3:-3/analyse=0x3:0x133/me=umh/subme=10/psy=1/fade_compensate=0.00/psy_rd=1.00:0.00/mixed_ref=1/me_range=32/chroma_me=1/trellis=2/8x8dct=1/cqm=0/deadzone=21,11/fast_pskip=1/chroma_qp_offset=-2/threads=16/lookahead_threads=2/sliced_threads=0/nr=0/decimate=1/interlaced=0/bluray_compat=0/constrained_intra=0/fgo=0/bframes=7/b_pyramid=2/b_adapt=2/b_bias=0/direct=3/weightb=1/open_gop=0/weightp=2/keyint=250/keyint_min=23/scenecut=40/intra_refresh=0/rc_lookahead=40/rc=crf/mbtree=0/crf=16.5000/qcomp=0.65/qpmin=0/qpmax=40/qpstep=4/vbv_maxrate=50000/vbv_bufsize=50000/crf_max=0.0/nal_hrd=none/filler=0/ip_ratio=1.25/pb_ratio=1.25/aq=1:0.60
    Язык : Italian
    Default : Да
    Forced : Нет
    DURATION : 00:54:01.640000000
    NUMBER_OF_FRAMES : 81041
    NUMBER_OF_BYTES : 5905198068
    _STATISTICS_WRITING_APP : mkvmerge v7.0.0 (;Where We Going;) 64bit built on Jun 9 2014 15:16:27
    _STATISTICS_WRITING_DATE_UTC : 2014-07-15 08:04:51
    _STATISTICS_TAGS : BPS DURATION NUMBER_OF_FRAMES NUMBER_OF_BYTES
    Аудио #1
    Идентификатор : 2
    Формат : AC-3
    Формат/Информация : Audio Coding 3
    Расширение режима : CM (complete main)
    Параметр Endianness формата : Big
    Идентификатор кодека : A_AC3
    Продолжительность : 54 м.
    Вид битрейта : Постоянный
    Битрейт : 192 Кбит/сек
    Каналы : 2 канала
    Расположение каналов : Front: L R
    Частота : 48,0 КГц
    Битовая глубина : 16 бит
    Метод сжатия : С потерями
    Размер потока : 74,2 Мбайт (1%)
    Заголовок : AC3 2.0 @ 192 kbps - Sony Turbo
    Язык : Russian
    Default : Да
    Forced : Нет
    Аудио #2
    Идентификатор : 3
    Формат : AC-3
    Формат/Информация : Audio Coding 3
    Расширение режима : CM (complete main)
    Параметр Endianness формата : Big
    Идентификатор кодека : A_AC3
    Продолжительность : 54 м.
    Вид битрейта : Постоянный
    Битрейт : 640 Кбит/сек
    Каналы : 6 каналов
    Расположение каналов : Front: L C R, Side: L R, LFE
    Частота : 48,0 КГц
    Битовая глубина : 16 бит
    Метод сжатия : С потерями
    Размер потока : 247 Мбайт (4%)
    Заголовок : AC3 5.1 @ 640 kbps
    Язык : Italian
    Default : Нет
    Forced : Нет
    Текст #1
    Идентификатор : 4
    Формат : UTF-8
    Идентификатор кодека : S_TEXT/UTF8
    Идентификатор кодека/Информация : UTF-8 Plain Text
    Язык : English
    Default : Нет
    Forced : Нет
    Текст #2
    Идентификатор : 5
    Формат : UTF-8
    Идентификатор кодека : S_TEXT/UTF8
    Идентификатор кодека/Информация : UTF-8 Plain Text
    Язык : Italian
    Default : Нет
    Forced : Нет
    Общее
    Уникальный идентификатор : 199652907960086520556576992028396369843 (0x9633C05B41219F849F94D75FF2FC37B3)
    Полное имя : Romanzo.Criminale.La.Serie.S02.720p.BluRay.Rus.Ita.HDCLUB-SbRRomanzo.Criminale.La.Serie.S02E05.Episodio.05.720p.BluRay.Rus.Ita.HDCLUB-SbR.mkv
    Формат : Matroska
    Версия формата : Version 4/Version 2
    Размер файла : 6,14 Гбайт
    Продолжительность : 50 м.
    Общий поток : 17,3 Мбит/сек
    Дата кодирования : UTC 2014-07-15 08:10:27
    Программа кодирования : mkvmerge v7.0.0 (;Where We Going;) 64bit built on Jun 9 2014 15:16:27
    Библиотека кодирования : libebml v1.3.0 + libmatroska v1.4.1
    DURATION : 00:50:39.712000000
    NUMBER_OF_FRAMES : 94991
    NUMBER_OF_BYTES : 72953088
    _STATISTICS_WRITING_APP : mkvmerge v7.0.0 (;Where We Going;) 64bit built on Jun 9 2014 15:16:27
    _STATISTICS_WRITING_DATE_UTC : 2014-07-15 08:10:27
    _STATISTICS_TAGS : BPS DURATION NUMBER_OF_FRAMES NUMBER_OF_BYTES
    Видео
    Идентификатор : 1
    Формат : AVC
    Формат/Информация : Advanced Video Codec
    Профиль формата : High@L4.1
    Параметр CABAC формата : Да
    Параметр ReFrames формата : 9 кадров
    Идентификатор кодека : V_MPEG4/ISO/AVC
    Продолжительность : 50 м.
    Битрейт : 16,2 Мбит/сек
    Ширина : 1280 пикселей
    Высота : 720 пикселей
    Соотношение сторон : 16:9
    Режим частоты кадров : Постоянный
    Частота кадров : 25,000 кадров/сек
    Цветовое пространство : YUV
    Субдискретизация насыщенности : 4:2:0
    Битовая глубина : 8 бит
    Тип развёртки : Прогрессивная
    Бит/(Пиксели*Кадры) : 0.702
    Размер потока : 5,72 Гбайт (93%)
    Заголовок : Romanzo Criminale - La Serie. Stagione 02 Episodio 05 ITA
    Библиотека кодирования : x264 core 142 r2389kMod 956c8d8
    Настройки программы : cabac=1/ref=9/deblock=1:-3:-3/analyse=0x3:0x133/me=umh/subme=10/psy=1/fade_compensate=0.00/psy_rd=1.00:0.00/mixed_ref=1/me_range=32/chroma_me=1/trellis=2/8x8dct=1/cqm=0/deadzone=21,11/fast_pskip=1/chroma_qp_offset=-2/threads=16/lookahead_threads=2/sliced_threads=0/nr=0/decimate=1/interlaced=0/bluray_compat=0/constrained_intra=0/fgo=0/bframes=7/b_pyramid=2/b_adapt=2/b_bias=0/direct=3/weightb=1/open_gop=0/weightp=2/keyint=250/keyint_min=23/scenecut=40/intra_refresh=0/rc_lookahead=40/rc=crf/mbtree=0/crf=16.5000/qcomp=0.65/qpmin=0/qpmax=40/qpstep=4/vbv_maxrate=50000/vbv_bufsize=50000/crf_max=0.0/nal_hrd=none/filler=0/ip_ratio=1.25/pb_ratio=1.25/aq=1:0.60
    Язык : Italian
    Default : Да
    Forced : Нет
    DURATION : 00:50:40.240000000
    NUMBER_OF_FRAMES : 76006
    NUMBER_OF_BYTES : 6275998360
    _STATISTICS_WRITING_APP : mkvmerge v7.0.0 (;Where We Going;) 64bit built on Jun 9 2014 15:16:27
    _STATISTICS_WRITING_DATE_UTC : 2014-07-15 08:10:27
    _STATISTICS_TAGS : BPS DURATION NUMBER_OF_FRAMES NUMBER_OF_BYTES
    Аудио #1
    Идентификатор : 2
    Формат : AC-3
    Формат/Информация : Audio Coding 3
    Расширение режима : CM (complete main)
    Параметр Endianness формата : Big
    Идентификатор кодека : A_AC3
    Продолжительность : 50 м.
    Вид битрейта : Постоянный
    Битрейт : 192 Кбит/сек
    Каналы : 2 канала
    Расположение каналов : Front: L R
    Частота : 48,0 КГц
    Битовая глубина : 16 бит
    Метод сжатия : С потерями
    Размер потока : 69,6 Мбайт (1%)
    Заголовок : AC3 2.0 @ 192 kbps - Sony Turbo
    Язык : Russian
    Default : Да
    Forced : Нет
    Аудио #2
    Идентификатор : 3
    Формат : AC-3
    Формат/Информация : Audio Coding 3
    Расширение режима : CM (complete main)
    Параметр Endianness формата : Big
    Идентификатор кодека : A_AC3
    Продолжительность : 50 м.
    Вид битрейта : Постоянный
    Битрейт : 640 Кбит/сек
    Каналы : 6 каналов
    Расположение каналов : Front: L C R, Side: L R, LFE
    Частота : 48,0 КГц
    Битовая глубина : 16 бит
    Метод сжатия : С потерями
    Размер потока : 232 Мбайт (4%)
    Заголовок : AC3 5.1 @ 640 kbps
    Язык : Italian
    Default : Нет
    Forced : Нет
    Текст #1
    Идентификатор : 4
    Формат : UTF-8
    Идентификатор кодека : S_TEXT/UTF8
    Идентификатор кодека/Информация : UTF-8 Plain Text
    Язык : English
    Default : Нет
    Forced : Нет
    Текст #2
    Идентификатор : 5
    Формат : UTF-8
    Идентификатор кодека : S_TEXT/UTF8
    Идентификатор кодека/Информация : UTF-8 Plain Text
    Язык : Italian
    Default : Нет
    Forced : Нет
    Общее
    Уникальный идентификатор : 189546362407914751966570655664172414373 (0x8E994D307CC11A2D99E6224F7CC7B5A5)
    Полное имя : Romanzo.Criminale.La.Serie.S02.720p.BluRay.Rus.Ita.HDCLUB-SbRRomanzo.Criminale.La.Serie.S02E06.Episodio.06.720p.BluRay.Rus.Ita.HDCLUB-SbR.mkv
    Формат : Matroska
    Версия формата : Version 4/Version 2
    Размер файла : 5,89 Гбайт
    Продолжительность : 49 м.
    Общий поток : 17,0 Мбит/сек
    Дата кодирования : UTC 2014-07-16 13:21:37
    Программа кодирования : mkvmerge v7.0.0 (;Where We Going;) 64bit built on Jun 9 2014 15:16:27
    Библиотека кодирования : libebml v1.3.0 + libmatroska v1.4.1
    DURATION : 00:49:38.944000000
    NUMBER_OF_FRAMES : 93092
    NUMBER_OF_BYTES : 71494656
    _STATISTICS_WRITING_APP : mkvmerge v7.0.0 (;Where We Going;) 64bit built on Jun 9 2014 15:16:27
    _STATISTICS_WRITING_DATE_UTC : 2014-07-16 13:21:37
    _STATISTICS_TAGS : BPS DURATION NUMBER_OF_FRAMES NUMBER_OF_BYTES
    Видео
    Идентификатор : 1
    Формат : AVC
    Формат/Информация : Advanced Video Codec
    Профиль формата : High@L4.1
    Параметр CABAC формата : Да
    Параметр ReFrames формата : 9 кадров
    Идентификатор кодека : V_MPEG4/ISO/AVC
    Продолжительность : 49 м.
    Битрейт : 15,8 Мбит/сек
    Ширина : 1280 пикселей
    Высота : 720 пикселей
    Соотношение сторон : 16:9
    Режим частоты кадров : Постоянный
    Частота кадров : 25,000 кадров/сек
    Цветовое пространство : YUV
    Субдискретизация насыщенности : 4:2:0
    Битовая глубина : 8 бит
    Тип развёртки : Прогрессивная
    Бит/(Пиксели*Кадры) : 0.686
    Размер потока : 5,48 Гбайт (93%)
    Заголовок : Romanzo Criminale - La Serie. Stagione 02 Episodio 06 ITA
    Библиотека кодирования : x264 core 142 r2389kMod 956c8d8
    Настройки программы : cabac=1/ref=9/deblock=1:-3:-3/analyse=0x3:0x133/me=umh/subme=10/psy=1/fade_compensate=0.00/psy_rd=1.00:0.00/mixed_ref=1/me_range=32/chroma_me=1/trellis=2/8x8dct=1/cqm=0/deadzone=21,11/fast_pskip=1/chroma_qp_offset=-2/threads=16/lookahead_threads=2/sliced_threads=0/nr=0/decimate=1/interlaced=0/bluray_compat=0/constrained_intra=0/fgo=0/bframes=7/b_pyramid=2/b_adapt=2/b_bias=0/direct=3/weightb=1/open_gop=0/weightp=2/keyint=250/keyint_min=23/scenecut=40/intra_refresh=0/rc_lookahead=40/rc=crf/mbtree=0/crf=16.5000/qcomp=0.65/qpmin=0/qpmax=40/qpstep=4/vbv_maxrate=50000/vbv_bufsize=50000/crf_max=0.0/nal_hrd=none/filler=0/ip_ratio=1.25/pb_ratio=1.25/aq=1:0.60
    Язык : Italian
    Default : Да
    Forced : Нет
    DURATION : 00:49:39.240000000
    NUMBER_OF_FRAMES : 74481
    NUMBER_OF_BYTES : 6010793112
    _STATISTICS_WRITING_APP : mkvmerge v7.0.0 (;Where We Going;) 64bit built on Jun 9 2014 15:16:27
    _STATISTICS_WRITING_DATE_UTC : 2014-07-16 13:21:37
    _STATISTICS_TAGS : BPS DURATION NUMBER_OF_FRAMES NUMBER_OF_BYTES
    Аудио #1
    Идентификатор : 2
    Формат : AC-3
    Формат/Информация : Audio Coding 3
    Расширение режима : CM (complete main)
    Параметр Endianness формата : Big
    Идентификатор кодека : A_AC3
    Продолжительность : 49 м.
    Вид битрейта : Постоянный
    Битрейт : 192 Кбит/сек
    Каналы : 2 канала
    Расположение каналов : Front: L R
    Частота : 48,0 КГц
    Битовая глубина : 16 бит
    Метод сжатия : С потерями
    Размер потока : 68,2 Мбайт (1%)
    Заголовок : AC3 2.0 @ 192 kbps - Sony Turbo
    Язык : Russian
    Default : Да
    Forced : Нет
    Аудио #2
    Идентификатор : 3
    Формат : AC-3
    Формат/Информация : Audio Coding 3
    Расширение режима : CM (complete main)
    Параметр Endianness формата : Big
    Идентификатор кодека : A_AC3
    Продолжительность : 49 м.
    Вид битрейта : Постоянный
    Битрейт : 640 Кбит/сек
    Каналы : 6 каналов
    Расположение каналов : Front: L C R, Side: L R, LFE
    Частота : 48,0 КГц
    Битовая глубина : 16 бит
    Метод сжатия : С потерями
    Размер потока : 227 Мбайт (4%)
    Заголовок : AC3 5.1 @ 640 kbps
    Язык : Italian
    Default : Нет
    Forced : Нет
    Текст #1
    Идентификатор : 4
    Формат : UTF-8
    Идентификатор кодека : S_TEXT/UTF8
    Идентификатор кодека/Информация : UTF-8 Plain Text
    Язык : English
    Default : Нет
    Forced : Нет
    Текст #2
    Идентификатор : 5
    Формат : UTF-8
    Идентификатор кодека : S_TEXT/UTF8
    Идентификатор кодека/Информация : UTF-8 Plain Text
    Язык : Italian
    Default : Нет
    Forced : Нет
    Общее
    Уникальный идентификатор : 218600125721897992675832784949519197399 (0xA474DA50EF387150B511F68CA40E24D7)
    Полное имя : Romanzo.Criminale.La.Serie.S02.720p.BluRay.Rus.Ita.HDCLUB-SbRRomanzo.Criminale.La.Serie.S02E07.Episodio.07.720p.BluRay.Rus.Ita.HDCLUB-SbR.mkv
    Формат : Matroska
    Версия формата : Version 4/Version 2
    Размер файла : 3,88 Гбайт
    Продолжительность : 51 м.
    Общий поток : 10,7 Мбит/сек
    Дата кодирования : UTC 2014-07-16 13:26:38
    Программа кодирования : mkvmerge v7.0.0 (;Where We Going;) 64bit built on Jun 9 2014 15:16:27
    Библиотека кодирования : libebml v1.3.0 + libmatroska v1.4.1
    DURATION : 00:51:54.944000000
    NUMBER_OF_FRAMES : 97342
    NUMBER_OF_BYTES : 74758656
    _STATISTICS_WRITING_APP : mkvmerge v7.0.0 (;Where We Going;) 64bit built on Jun 9 2014 15:16:27
    _STATISTICS_WRITING_DATE_UTC : 2014-07-16 13:26:38
    _STATISTICS_TAGS : BPS DURATION NUMBER_OF_FRAMES NUMBER_OF_BYTES
    Видео
    Идентификатор : 1
    Формат : AVC
    Формат/Информация : Advanced Video Codec
    Профиль формата : High@L4.1
    Параметр CABAC формата : Да
    Параметр ReFrames формата : 9 кадров
    Идентификатор кодека : V_MPEG4/ISO/AVC
    Продолжительность : 51 м.
    Битрейт : 9659 Кбит/сек
    Ширина : 1280 пикселей
    Высота : 720 пикселей
    Соотношение сторон : 16:9
    Режим частоты кадров : Постоянный
    Частота кадров : 25,000 кадров/сек
    Цветовое пространство : YUV
    Субдискретизация насыщенности : 4:2:0
    Битовая глубина : 8 бит
    Тип развёртки : Прогрессивная
    Бит/(Пиксели*Кадры) : 0.419
    Размер потока : 3,50 Гбайт (90%)
    Заголовок : Romanzo Criminale - La Serie. Stagione 02 Episodio 07 ITA
    Библиотека кодирования : x264 core 142 r2389kMod 956c8d8
    Настройки программы : cabac=1/ref=9/deblock=1:-3:-3/analyse=0x3:0x133/me=umh/subme=10/psy=1/fade_compensate=0.00/psy_rd=1.00:0.00/mixed_ref=1/me_range=32/chroma_me=1/trellis=2/8x8dct=1/cqm=0/deadzone=21,11/fast_pskip=1/chroma_qp_offset=-2/threads=16/lookahead_threads=2/sliced_threads=0/nr=0/decimate=1/interlaced=0/bluray_compat=0/constrained_intra=0/fgo=0/bframes=7/b_pyramid=2/b_adapt=2/b_bias=0/direct=3/weightb=1/open_gop=0/weightp=2/keyint=250/keyint_min=23/scenecut=40/intra_refresh=0/rc_lookahead=40/rc=crf/mbtree=0/crf=16.5000/qcomp=0.65/qpmin=0/qpmax=40/qpstep=4/vbv_maxrate=50000/vbv_bufsize=50000/crf_max=0.0/nal_hrd=none/filler=0/ip_ratio=1.25/pb_ratio=1.25/aq=1:0.60
    Язык : Italian
    Default : Да
    Forced : Нет
    DURATION : 00:51:55.240000000
    NUMBER_OF_FRAMES : 77881
    NUMBER_OF_BYTES : 3843238040
    _STATISTICS_WRITING_APP : mkvmerge v7.0.0 (;Where We Going;) 64bit built on Jun 9 2014 15:16:27
    _STATISTICS_WRITING_DATE_UTC : 2014-07-16 13:26:38
    _STATISTICS_TAGS : BPS DURATION NUMBER_OF_FRAMES NUMBER_OF_BYTES
    Аудио #1
    Идентификатор : 2
    Формат : AC-3
    Формат/Информация : Audio Coding 3
    Расширение режима : CM (complete main)
    Параметр Endianness формата : Big
    Идентификатор кодека : A_AC3
    Продолжительность : 51 м.
    Вид битрейта : Постоянный
    Битрейт : 192 Кбит/сек
    Каналы : 2 канала
    Расположение каналов : Front: L R
    Частота : 48,0 КГц
    Битовая глубина : 16 бит
    Метод сжатия : С потерями
    Размер потока : 71,3 Мбайт (2%)
    Заголовок : AC3 2.0 @ 192 kbps - Sony Turbo
    Язык : Russian
    Default : Да
    Forced : Нет
    Аудио #2
    Идентификатор : 3
    Формат : AC-3
    Формат/Информация : Audio Coding 3
    Расширение режима : CM (complete main)
    Параметр Endianness формата : Big
    Идентификатор кодека : A_AC3
    Продолжительность : 51 м.
    Вид битрейта : Постоянный
    Битрейт : 640 Кбит/сек
    Каналы : 6 каналов
    Расположение каналов : Front: L C R, Side: L R, LFE
    Частота : 48,0 КГц
    Битовая глубина : 16 бит
    Метод сжатия : С потерями
    Размер потока : 238 Мбайт (6%)
    Заголовок : AC3 5.1 @ 640 kbps
    Язык : Italian
    Default : Нет
    Forced : Нет
    Текст #1
    Идентификатор : 4
    Формат : UTF-8
    Идентификатор кодека : S_TEXT/UTF8
    Идентификатор кодека/Информация : UTF-8 Plain Text
    Язык : English
    Default : Нет
    Forced : Нет
    Текст #2
    Идентификатор : 5
    Формат : UTF-8
    Идентификатор кодека : S_TEXT/UTF8
    Идентификатор кодека/Информация : UTF-8 Plain Text
    Язык : Italian
    Default : Нет
    Forced : Нет
    Общее
    Уникальный идентификатор : 170789044071677569074383304202903433308 (0x807CC5FE880C4A988A7F6DE29881305C)
    Полное имя : Romanzo.Criminale.La.Serie.S02.720p.BluRay.Rus.Ita.HDCLUB-SbRRomanzo.Criminale.La.Serie.S02E08.Episodio.08.720p.BluRay.Rus.Ita.HDCLUB-SbR.mkv
    Формат : Matroska
    Версия формата : Version 4/Version 2
    Размер файла : 4,03 Гбайт
    Продолжительность : 52 м.
    Общий поток : 10,9 Мбит/сек
    Дата кодирования : UTC 2014-07-16 13:32:36
    Программа кодирования : mkvmerge v7.0.0 (;Where We Going;) 64bit built on Jun 9 2014 15:16:27
    Библиотека кодирования : libebml v1.3.0 + libmatroska v1.4.1
    DURATION : 00:52:56.224000000
    NUMBER_OF_FRAMES : 99257
    NUMBER_OF_BYTES : 76229376
    _STATISTICS_WRITING_APP : mkvmerge v7.0.0 (;Where We Going;) 64bit built on Jun 9 2014 15:16:27
    _STATISTICS_WRITING_DATE_UTC : 2014-07-16 13:32:36
    _STATISTICS_TAGS : BPS DURATION NUMBER_OF_FRAMES NUMBER_OF_BYTES
    Видео
    Идентификатор : 1
    Формат : AVC
    Формат/Информация : Advanced Video Codec
    Профиль формата : High@L4.1
    Параметр CABAC формата : Да
    Параметр ReFrames формата : 9 кадров
    Идентификатор кодека : V_MPEG4/ISO/AVC
    Продолжительность : 52 м.
    Битрейт : 9862 Кбит/сек
    Ширина : 1280 пикселей
    Высота : 720 пикселей
    Соотношение сторон : 16:9
    Режим частоты кадров : Постоянный
    Частота кадров : 25,000 кадров/сек
    Цветовое пространство : YUV
    Субдискретизация насыщенности : 4:2:0
    Битовая глубина : 8 бит
    Тип развёртки : Прогрессивная
    Бит/(Пиксели*Кадры) : 0.428
    Размер потока : 3,65 Гбайт (90%)
    Заголовок : Romanzo Criminale - La Serie. Stagione 02 Episodio 08 ITA
    Библиотека кодирования : x264 core 142 r2389kMod 956c8d8
    Настройки программы : cabac=1/ref=9/deblock=1:-3:-3/analyse=0x3:0x133/me=umh/subme=10/psy=1/fade_compensate=0.00/psy_rd=1.00:0.00/mixed_ref=1/me_range=32/chroma_me=1/trellis=2/8x8dct=1/cqm=0/deadzone=21,11/fast_pskip=1/chroma_qp_offset=-2/threads=16/lookahead_threads=2/sliced_threads=0/nr=0/decimate=1/interlaced=0/bluray_compat=0/constrained_intra=0/fgo=0/bframes=7/b_pyramid=2/b_adapt=2/b_bias=0/direct=3/weightb=1/open_gop=0/weightp=2/keyint=250/keyint_min=23/scenecut=40/intra_refresh=0/rc_lookahead=40/rc=crf/mbtree=0/crf=16.5000/qcomp=0.65/qpmin=0/qpmax=40/qpstep=4/vbv_maxrate=50000/vbv_bufsize=50000/crf_max=0.0/nal_hrd=none/filler=0/ip_ratio=1.25/pb_ratio=1.25/aq=1:0.60
    Язык : Italian
    Default : Да
    Forced : Нет
    DURATION : 00:52:56.240000000
    NUMBER_OF_FRAMES : 79406
    NUMBER_OF_BYTES : 4000702486
    _STATISTICS_WRITING_APP : mkvmerge v7.0.0 (;Where We Going;) 64bit built on Jun 9 2014 15:16:27
    _STATISTICS_WRITING_DATE_UTC : 2014-07-16 13:32:36
    _STATISTICS_TAGS : BPS DURATION NUMBER_OF_FRAMES NUMBER_OF_BYTES
    Аудио #1
    Идентификатор : 2
    Формат : AC-3
    Формат/Информация : Audio Coding 3
    Расширение режима : CM (complete main)
    Параметр Endianness формата : Big
    Идентификатор кодека : A_AC3
    Продолжительность : 52 м.
    Вид битрейта : Постоянный
    Битрейт : 192 Кбит/сек
    Каналы : 2 канала
    Расположение каналов : Front: L R
    Частота : 48,0 КГц
    Битовая глубина : 16 бит
    Метод сжатия : С потерями
    Размер потока : 72,7 Мбайт (2%)
    Заголовок : AC3 2.0 @ 192 kbps - Sony Turbo
    Язык : Russian
    Default : Да
    Forced : Нет
    Аудио #2
    Идентификатор : 3
    Формат : AC-3
    Формат/Информация : Audio Coding 3
    Расширение режима : CM (complete main)
    Параметр Endianness формата : Big
    Идентификатор кодека : A_AC3
    Продолжительность : 52 м.
    Вид битрейта : Постоянный
    Битрейт : 640 Кбит/сек
    Каналы : 6 каналов
    Расположение каналов : Front: L C R, Side: L R, LFE
    Частота : 48,0 КГц
    Битовая глубина : 16 бит
    Метод сжатия : С потерями
    Размер потока : 242 Мбайт (6%)
    Заголовок : AC3 5.1 @ 640 kbps
    Язык : Italian
    Default : Нет
    Forced : Нет
    Текст #1
    Идентификатор : 4
    Формат : UTF-8
    Идентификатор кодека : S_TEXT/UTF8
    Идентификатор кодека/Информация : UTF-8 Plain Text
    Язык : English
    Default : Нет
    Forced : Нет
    Текст #2
    Идентификатор : 5
    Формат : UTF-8
    Идентификатор кодека : S_TEXT/UTF8
    Идентификатор кодека/Информация : UTF-8 Plain Text
    Язык : Italian
    Default : Нет
    Forced : Нет
    Общее
    Уникальный идентификатор : 182926392693941208377961175902785790094 (0x899E577BAB71F99DADEA2451557A608E)
    Полное имя : Romanzo.Criminale.La.Serie.S02.720p.BluRay.Rus.Ita.HDCLUB-SbRRomanzo.Criminale.La.Serie.S02E09.Episodio.09.720p.BluRay.Rus.Ita.HDCLUB-SbR.mkv
    Формат : Matroska
    Версия формата : Version 4/Version 2
    Размер файла : 4,83 Гбайт
    Продолжительность : 55 м.
    Общий поток : 12,4 Мбит/сек
    Дата кодирования : UTC 2014-07-16 13:38:06
    Программа кодирования : mkvmerge v7.0.0 (;Where We Going;) 64bit built on Jun 9 2014 15:16:27
    Библиотека кодирования : libebml v1.3.0 + libmatroska v1.4.1
    DURATION : 00:55:37.856000000
    NUMBER_OF_FRAMES : 104308
    NUMBER_OF_BYTES : 80108544
    _STATISTICS_WRITING_APP : mkvmerge v7.0.0 (;Where We Going;) 64bit built on Jun 9 2014 15:16:27
    _STATISTICS_WRITING_DATE_UTC : 2014-07-16 13:38:06
    _STATISTICS_TAGS : BPS DURATION NUMBER_OF_FRAMES NUMBER_OF_BYTES
    Видео
    Идентификатор : 1
    Формат : AVC
    Формат/Информация : Advanced Video Codec
    Профиль формата : High@L4.1
    Параметр CABAC формата : Да
    Параметр ReFrames формата : 9 кадров
    Идентификатор кодека : V_MPEG4/ISO/AVC
    Продолжительность : 55 м.
    Битрейт : 11,3 Мбит/сек
    Ширина : 1280 пикселей
    Высота : 720 пикселей
    Соотношение сторон : 16:9
    Режим частоты кадров : Постоянный
    Частота кадров : 25,000 кадров/сек
    Цветовое пространство : YUV
    Субдискретизация насыщенности : 4:2:0
    Битовая глубина : 8 бит
    Тип развёртки : Прогрессивная
    Бит/(Пиксели*Кадры) : 0.492
    Размер потока : 4,41 Гбайт (91%)
    Заголовок : Romanzo Criminale - La Serie. Stagione 02 Episodio 09 ITA
    Библиотека кодирования : x264 core 142 r2389kMod 956c8d8
    Настройки программы : cabac=1/ref=9/deblock=1:-3:-3/analyse=0x3:0x133/me=umh/subme=10/psy=1/fade_compensate=0.00/psy_rd=1.00:0.00/mixed_ref=1/me_range=32/chroma_me=1/trellis=2/8x8dct=1/cqm=0/deadzone=21,11/fast_pskip=1/chroma_qp_offset=-2/threads=16/lookahead_threads=2/sliced_threads=0/nr=0/decimate=1/interlaced=0/bluray_compat=0/constrained_intra=0/fgo=0/bframes=7/b_pyramid=2/b_adapt=2/b_bias=0/direct=3/weightb=1/open_gop=0/weightp=2/keyint=250/keyint_min=23/scenecut=40/intra_refresh=0/rc_lookahead=40/rc=crf/mbtree=0/crf=16.5000/qcomp=0.65/qpmin=0/qpmax=40/qpstep=4/vbv_maxrate=50000/vbv_bufsize=50000/crf_max=0.0/nal_hrd=none/filler=0/ip_ratio=1.25/pb_ratio=1.25/aq=1:0.60
    Язык : Italian
    Default : Да
    Forced : Нет
    DURATION : 00:55:38.240000000
    NUMBER_OF_FRAMES : 83456
    NUMBER_OF_BYTES : 4833185819
    _STATISTICS_WRITING_APP : mkvmerge v7.0.0 (;Where We Going;) 64bit built on Jun 9 2014 15:16:27
    _STATISTICS_WRITING_DATE_UTC : 2014-07-16 13:38:06
    _STATISTICS_TAGS : BPS DURATION NUMBER_OF_FRAMES NUMBER_OF_BYTES
    Аудио #1
    Идентификатор : 2
    Формат : AC-3
    Формат/Информация : Audio Coding 3
    Расширение режима : CM (complete main)
    Параметр Endianness формата : Big
    Идентификатор кодека : A_AC3
    Продолжительность : 55 м.
    Вид битрейта : Постоянный
    Битрейт : 192 Кбит/сек
    Каналы : 2 канала
    Расположение каналов : Front: L R
    Частота : 48,0 КГц
    Битовая глубина : 16 бит
    Метод сжатия : С потерями
    Размер потока : 76,4 Мбайт (2%)
    Заголовок : AC3 2.0 @ 192 kbps - Sony Turbo
    Язык : Russian
    Default : Да
    Forced : Нет
    Аудио #2
    Идентификатор : 3
    Формат : AC-3
    Формат/Информация : Audio Coding 3
    Расширение режима : CM (complete main)
    Параметр Endianness формата : Big
    Идентификатор кодека : A_AC3
    Продолжительность : 55 м.
    Вид битрейта : Постоянный
    Битрейт : 640 Кбит/сек
    Каналы : 6 каналов
    Расположение каналов : Front: L C R, Side: L R, LFE
    Частота : 48,0 КГц
    Битовая глубина : 16 бит
    Метод сжатия : С потерями
    Размер потока : 255 Мбайт (5%)
    Заголовок : AC3 5.1 @ 640 kbps
    Язык : Italian
    Default : Нет
    Forced : Нет
    Текст #1
    Идентификатор : 4
    Формат : UTF-8
    Идентификатор кодека : S_TEXT/UTF8
    Идентификатор кодека/Информация : UTF-8 Plain Text
    Язык : English
    Default : Нет
    Forced : Нет
    Текст #2
    Идентификатор : 5
    Формат : UTF-8
    Идентификатор кодека : S_TEXT/UTF8
    Идентификатор кодека/Информация : UTF-8 Plain Text
    Язык : Italian
    Default : Нет
    Forced : Нет
    Общее
    Уникальный идентификатор : 220139259885724235903606506664434141587 (0xA59D477D400B86CCAB1E6DB5FA1D0993)
    Полное имя : Romanzo.Criminale.La.Serie.S02.720p.BluRay.Rus.Ita.HDCLUB-SbRRomanzo.Criminale.La.Serie.S02E10.Episodio.10.720p.BluRay.Rus.Ita.HDCLUB-SbR.mkv
    Формат : Matroska
    Версия формата : Version 4/Version 2
    Размер файла : 4,22 Гбайт
    Продолжительность : 53 м.
    Общий поток : 11,3 Мбит/сек
    Дата кодирования : UTC 2014-07-16 13:42:03
    Программа кодирования : mkvmerge v7.0.0 (;Where We Going;) 64bit built on Jun 9 2014 15:16:27
    Библиотека кодирования : libebml v1.3.0 + libmatroska v1.4.1
    DURATION : 00:53:19.264000000
    NUMBER_OF_FRAMES : 99977
    NUMBER_OF_BYTES : 76782336
    _STATISTICS_WRITING_APP : mkvmerge v7.0.0 (;Where We Going;) 64bit built on Jun 9 2014 15:16:27
    _STATISTICS_WRITING_DATE_UTC : 2014-07-16 13:42:03
    _STATISTICS_TAGS : BPS DURATION NUMBER_OF_FRAMES NUMBER_OF_BYTES
    Видео
    Идентификатор : 1
    Формат : AVC
    Формат/Информация : Advanced Video Codec
    Профиль формата : High@L4.1
    Параметр CABAC формата : Да
    Параметр ReFrames формата : 9 кадров
    Идентификатор кодека : V_MPEG4/ISO/AVC
    Продолжительность : 53 м.
    Битрейт : 10,3 Мбит/сек
    Ширина : 1280 пикселей
    Высота : 720 пикселей
    Соотношение сторон : 16:9
    Режим частоты кадров : Постоянный
    Частота кадров : 25,000 кадров/сек
    Цветовое пространство : YUV
    Субдискретизация насыщенности : 4:2:0
    Битовая глубина : 8 бит
    Тип развёртки : Прогрессивная
    Бит/(Пиксели*Кадры) : 0.446
    Размер потока : 3,83 Гбайт (91%)
    Заголовок : Romanzo Criminale - La Serie. Stagione 02 Episodio 10 ITA
    Библиотека кодирования : x264 core 142 r2389kMod 956c8d8
    Настройки программы : cabac=1/ref=9/deblock=1:-3:-3/analyse=0x3:0x133/me=umh/subme=10/psy=1/fade_compensate=0.00/psy_rd=1.00:0.00/mixed_ref=1/me_range=32/chroma_me=1/trellis=2/8x8dct=1/cqm=0/deadzone=21,11/fast_pskip=1/chroma_qp_offset=-2/threads=16/lookahead_threads=2/sliced_threads=0/nr=0/decimate=1/interlaced=0/bluray_compat=0/constrained_intra=0/fgo=0/bframes=7/b_pyramid=2/b_adapt=2/b_bias=0/direct=3/weightb=1/open_gop=0/weightp=2/keyint=250/keyint_min=23/scenecut=40/intra_refresh=0/rc_lookahead=40/rc=crf/mbtree=0/crf=16.5000/qcomp=0.65/qpmin=0/qpmax=40/qpstep=4/vbv_maxrate=50000/vbv_bufsize=50000/crf_max=0.0/nal_hrd=none/filler=0/ip_ratio=1.25/pb_ratio=1.25/aq=1:0.60
    Язык : Italian
    Default : Да
    Forced : Нет
    DURATION : 00:53:19.240000000
    NUMBER_OF_FRAMES : 79981
    NUMBER_OF_BYTES : 4196248314
    _STATISTICS_WRITING_APP : mkvmerge v7.0.0 (;Where We Going;) 64bit built on Jun 9 2014 15:16:27
    _STATISTICS_WRITING_DATE_UTC : 2014-07-16 13:42:03
    _STATISTICS_TAGS : BPS DURATION NUMBER_OF_FRAMES NUMBER_OF_BYTES
    Аудио #1
    Идентификатор : 2
    Формат : AC-3
    Формат/Информация : Audio Coding 3
    Расширение режима : CM (complete main)
    Параметр Endianness формата : Big
    Идентификатор кодека : A_AC3
    Продолжительность : 53 м.
    Вид битрейта : Постоянный
    Битрейт : 192 Кбит/сек
    Каналы : 2 канала
    Расположение каналов : Front: L R
    Частота : 48,0 КГц
    Битовая глубина : 16 бит
    Метод сжатия : С потерями
    Размер потока : 73,2 Мбайт (2%)
    Заголовок : AC3 2.0 @ 192 kbps - Sony Turbo
    Язык : Russian
    Default : Да
    Forced : Нет
    Аудио #2
    Идентификатор : 3
    Формат : AC-3
    Формат/Информация : Audio Coding 3
    Расширение режима : CM (complete main)
    Параметр Endianness формата : Big
    Идентификатор кодека : A_AC3
    Продолжительность : 53 м.
    Вид битрейта : Постоянный
    Битрейт : 640 Кбит/сек
    Каналы : 6 каналов
    Расположение каналов : Front: L C R, Side: L R, LFE
    Частота : 48,0 КГц
    Битовая глубина : 16 бит
    Метод сжатия : С потерями
    Размер потока : 244 Мбайт (6%)
    Заголовок : AC3 5.1 @ 640 kbps
    Язык : Italian
    Default : Нет
    Forced : Нет
    Текст #1
    Идентификатор : 4
    Формат : UTF-8
    Идентификатор кодека : S_TEXT/UTF8
    Идентификатор кодека/Информация : UTF-8 Plain Text
    Язык : English
    Default : Нет
    Forced : Нет
    Текст #2
    Идентификатор : 5
    Формат : UTF-8
    Идентификатор кодека : S_TEXT/UTF8
    Идентификатор кодека/Информация : UTF-8 Plain Text
    Язык : Italian
    Default : Нет
    Forced : Нет


    Снималось в:Италия
    Время просмотра:10 x ~ 01:00:00
    Перевод текста:Двухгоголосый закадровый,Sony Turbo
    Файл
    Кодек для видео:MPEG-4 AVC
    Качество фильма:BDRip 720p
    Информация о видео:~ 12358 Кбит/с, 1280x720, 25 кадр/с
    Информация о звуке:Русский (АС3, 2 ch, 192 Кбит/с), итальянский (АС3, 6 ch, 640 Кбит/с)
    Субтитры:Английские, итальянские
    Скриншоты для ознакомления

    Релиз подготовил:by HPotter
    Размер скачиваемого торрента: 52.73 GB (56622430623 Bytes)

    Криминальный роман/Romanzo criminale - La serie (2010) BDRip 720p от HDClub скачать через торрент бесплатно
    загрузка...
    Рейтинг →
     (голосов: 1, оценка 3/5, голосовать можно 1 раз )

    Другие торренты по теме:

  • Криминальный роман / Romanzo criminale - La serie (2008-2009) HDRip от super12308 | Sony Turbo торрент скачать бесплатно
  • Криминальный роман / Romanzo criminale (2005) DVDRip-AVC | P скачать торрент бесплатно


    • Комментарии (0):

      Информация

      Информация

        Посетители, находящиеся в группе Гости, не могут оставлять комментарии в данной новости.

        ↓ Меню



        ↓ Опрос

        А Вы добавили сайт в закладки?
        Да
        Не


        Top 10 за неделю (Фильмы)