.
Авторизация | Регистрация
» » Мумия: Принц Египта / Tale of the Mummy (1998) HDRip от Leon-masl | P2 скачать через торрент бесплатно




    Мумия: Принц Египта / Tale of the Mummy (1998) HDRip от Leon-masl | P2 скачать через торрент бесплатно

    Опубликовал: Админ | Дата: 27-02-2015, 11:10 | Просмотров: 167


    Детально о кино
    Русское название:Мумия: Принц Египта
    Русское название в мировом прокате:Tale of the Mummy
    Создали в:1998
    Категория жанра:Ужасы, фантастика, триллер
    Главный режиссер:Расселл Малкэй
    Актеры:Джейсон Скотт Ли,Луиза Ломбард,Шон Пертуи, Лизетт Энтони, Майкл Лернер, Джек Девенпорт, Онор Блэкман, Кристофер Ли, Шелли Дювалл,Джерард Батлер
    Сюжет фильма:
    Великий фараон Аменхотеп выдал свою дочь за чужестранца по имени Талас, который оказался жестоким и кровожадным магом. По приказу фараона Таласа убивают, а на его гробницу налагают вечное проклятие. Но в день великого парада планет Талас может вернуться к жизни, если его саркофаг будет вскрыт. В ХХ веке археологическая экспедиция находит гробницу Таласа. Саркофаг перевозят в Британский музей, где ученые приступают к его изучению. И приближается день Великого парада планет, когда ужасный дух зла обретает свободу. Только археолог Саманта и детектив Райли (Джексон Скотт Ли -Дракон: история Брюса Ли) могут помешать новой реинкарнации Таласа...

    Снималось в:США, Великобритания, Люксембург
    Время просмотра:01:28:15
    Перевод текста:Профессиональный (двухголосый, закадровый)|Студия Ракурс по заказу Екатеринбург Арт
    Файл
    Кодек для видео:XviD
    Качество фильма:HDRip
    Информация о видео:704x304, 23.976 fps. 1912 kbps
    Информация о звуке:AC3, 6 ch, 48.0 khz, 448 kbps
    MI
    Общее
    Полное имя : Tale.of.the.Mummy.1998.HDRip.avi
    Формат : AVI
    Формат/Информация : Audio Video Interleave
    Размер файла : 1,46 Гбайт
    Продолжительность : 1 ч. 28 м.
    Общий поток : 2370 Кбит/сек
    Программа кодирования : VirtualDubMod 1.5.10.3 | www.virtualdub-fr.org || (build 2550/release)
    Библиотека кодирования : VirtualDubMod build 2550/release
    Видео
    Идентификатор : 0
    Формат : MPEG-4 Visual
    Профиль формата : Advanced Simple@L5
    Параметр BVOP формата : 1
    Параметр QPel формата : Нет
    Параметр GMC формата : Без точки перехода
    Параметр матрицы формата : Выборочная
    Идентификатор кодека : XVID
    Идентификатор кодека/Подсказка : XviD
    Продолжительность : 1 ч. 28 м.
    Битрейт : 1912 Кбит/сек
    Ширина : 704 пикс.
    Высота : 304 пикс.
    Соотношение сторон : 2,35:1
    Частота кадров : 23,976 кадр/сек
    Цветовое пространство : YUV
    Подвыборка цветности : 4:2:0
    Битовая глубина : 8 бит
    Тип развёртки : Прогрессивная
    Метод сжатия : С потерями
    Бит/(Пиксели*Кадры) : 0.373
    Размер потока : 1,18 Гбайт (81%)
    Библиотека кодирования : XviD 73
    Аудио
    Идентификатор : 1
    Формат : AC-3
    Формат/Информация : Audio Coding 3
    Расширение режима : CM (complete main)
    Идентификатор кодека : 2000
    Продолжительность : 1 ч. 28 м.
    Вид битрейта : Постоянный
    Битрейт : 448 Кбит/сек
    Канал(ы) : 6 канала(ов)
    Расположение каналов : Front: L C R, Side: L R, LFE
    Частота : 48,0 КГц
    Битовая глубина : 16 бит
    Метод сжатия : С потерями
    Размер потока : 283 Мбайт (19%)
    Выравнивание : Разделение по промежуткам
    Продолжительность промежутка : 42 мс. (1,00 видеокадр)
    Время предзагрузки промежутка : 500 ms
    Скриншоты для ознакомления

    Релиз подготовил:Leon-masl
    Залил: leon-masl
    Размер скачиваемого торрента: 1.46 GB (1568522240 Bytes)

    Мумия: Принц Египта/Tale of the Mummy (1998) HDRip от Leon-masl | P2 скачать через торрент бесплатно
    загрузка...
    Рейтинг →
     (голосов: 1, оценка 5/5, голосовать можно 1 раз )

    Другие торренты по теме:

  • Мумия: Принц Египта / Tale of the Mummy (1998) BDRip 720p торрент скачать бесплатно
  • Мумия: Принц Египта / Tale of the Mummy / 1998 / ПД, СТ / BDRip (720p) скачать торрент бесплатно
  • Мумия: Принц Египта / Tale of the Mummy / 1998 / ПД, СТ / HDRip (AVC) скачать торрент бесплатно


    • Комментарии (0):

      Информация

      Информация

        Посетители, находящиеся в группе Гости, не могут оставлять комментарии в данной новости.

        ↓ Меню



        ↓ Опрос

        А Вы добавили сайт в закладки?
        Да
        Не


        Top 10 за неделю (Фильмы)

        Ёлки 5 (2016) WEB-DLRip скачать торрент бесплатно

        (просмотров: 2481)
        Разрушение / Demolition (2015) BDRemux 1080p от ExKinoRay | L скачать торрент бесплатно

        (просмотров: 1111)
        Мой парень – киллер / Mr. Right (2015) WEB-DL 1080p | L скачать торрент бесплатно

        (просмотров: 1051)
        Экипаж (2016) BDRip от New-Team | D | Лицензия скачать торрент бесплатно
        АНОНСЫ МОИХ РАЗДАЧ
        (просмотров: 901)
        Экипаж (2016) BDRip от New-Team | D | Лицензия скачать торрент бесплатно
        АНОНСЫ МОИХ РАЗДАЧ
        (просмотров: 901)
        Гений / Genius (2016) WEB-DLRip 1080p | Звук TS скачать торрент бесплатно

        (просмотров: 891)
        Демон внутри / Вскрытие Джейн Доу / The Autopsy of Jane Doe (2016) WEB-DLRip от Scarabey | P скачать торрент бесплатно
        Мы В КОНТАКТЕ =)
        (просмотров: 811)
        Кухня (1-5 сезоны: 1-100 серии из 100 + 2 бонуса) / 2012-2015 / РУ / DVDRip, WEB-DLRip скачать торрент бесплатно

        (просмотров: 811)
        Бригада (2002) HDDVDRip-AVC от TORRENT-45

        (просмотров: 811)
        Равные / Equals (2015) WEB-DLRip | L2 скачать торрент бесплатно

        (просмотров: 811)