.
Авторизация | Регистрация
» » Огненные колесницы / Chariots of Fire (1981) BDRemux 1080p от NovaLan скачать через торрент бесплатно




    Огненные колесницы / Chariots of Fire (1981) BDRemux 1080p от NovaLan скачать через торрент бесплатно

    Опубликовал: Админ | Дата: 27-02-2015, 11:10 | Просмотров: 167


    Русское название:Огненные колесницы
    Русское название в мировом прокате:Chariots of Fire
    Создали в:1981
    Категория жанра:Драма, история, спорт
    Главный режиссер:Хью Хадсон
    Актеры:Бен Кросс, Иэн Чарлсон, Найджел Хэверс, Николас Фэррел, Элис Крайдж, Иэн Холм, Джон Гилгуд, Брэд Дэвис, Найджел Девенпорт, Шерил Кэмпбелл
    Сюжет фильма:
    Фильм поставлен по реальным событиям и рассказывает о соперничестве двух атлетов-бегунов, представлявших Великобританию на Олимпийских играх 1924 года в Париже: студента Кембриджа, еврея Гарольда Абрахамса и шотландского миссионера Эрика Лиддела. В центре внимания авторов картины - противостояние двух характеров и двух противоположных мировоззрений.

    Снималось в:Великобритания, Allied Stars Ltd., Enigma Productions
    Время просмотра:02:03:33
    Перевод текста:Профессиональный многоголосый/Профессиональный многоголосый (Первый канал)/Профессиональный многоголосый (Петербург-5 канал)
    Кодек для видео:H.264
    Качество фильма:Blu-Ray Remux 1080p
    Информация о видео:MPEG-4 AVC, 24925 Кбит/с, 1920х1080, 23.976 кадр/с
    Информация о звуке:Русский (DTS, 6 ch, 768 Кбит/с), (AC3, 2 ch, 192 Кбит/с), английский (DTS-HD MA, 6 ch, 4163 Кбит/с), (AC3, 2 ch, 224 Кбит/с)
    Субтитры:Русские, английские
    Инфо-файл

    Полное имя : D:Раздачи_DChariots.Of.Fire.1981.BDRemux.1080p.NovaLan.mkv
    Формат : Matroska
    Версия формата : Version 4/Version 2
    Размер файла : 26,3 Гбайт
    Продолжительность : 2 ч. 3 м.
    Режим общего битрейта : Переменный
    Общий поток : 30,5 Мбит/сек
    Название фильма : Chariots Of Fire 1981 - NovaLan
    Дата кодирования : UTC 2014-07-28 20:09:17
    Программа кодирования : mkvmerge v6.9.1 (;Blue Panther;) 64bit built on Apr 18 2014 18:23:38
    Библиотека кодирования : libebml v1.3.0 + libmatroska v1.4.1
    Видео
    Идентификатор : 1
    Формат : AVC
    Формат/Информация : Advanced Video Codec
    Профиль формата : High@L4.1
    Параметр CABAC формата : Да
    Параметр ReFrames формата : 2 кадра
    Идентификатор кодека : V_MPEG4/ISO/AVC
    Продолжительность : 2 ч. 3 м.
    Вид битрейта : Переменный
    Битрейт : 26,9 Мбит/сек
    Ширина : 1920 пикселей
    Высота : 1080 пикселей
    Соотношение сторон : 16:9
    Частота кадров : 23,976 кадра/сек
    Цветовое пространство : YUV
    Субдискретизация насыщенности : 4:2:0
    Битовая глубина : 8 бит
    Тип развёртки : Прогрессивная
    Бит/(Пиксели*Кадры) : 0.542
    Размер потока : 23,2 Гбайт (88%)
    Заголовок : Chariots Of Fire 1981 - NovaLan
    Default : Да
    Forced : Нет
    Аудио #1
    Идентификатор : 2
    Формат : DTS
    Формат/Информация : Digital Theater Systems
    Идентификатор кодека : A_DTS
    Продолжительность : 2 ч. 3 м.
    Вид битрейта : Постоянный
    Битрейт : 755 Кбит/сек
    Каналы : 6 каналов
    Расположение каналов : Front: L C R, Side: L R, LFE
    Частота : 48,0 КГц
    Битовая глубина : 24 бит
    Метод сжатия : С потерями
    Размер потока : 667 Мбайт (2%)
    Язык : Russian
    Default : Да
    Forced : Нет
    Аудио #2
    Идентификатор : 3
    Формат : AC-3
    Формат/Информация : Audio Coding 3
    Расширение режима : CM (complete main)
    Параметр Endianness формата : Big
    Идентификатор кодека : A_AC3
    Продолжительность : 2 ч. 3 м.
    Вид битрейта : Постоянный
    Битрейт : 192 Кбит/сек
    Каналы : 2 канала
    Расположение каналов : Front: L R
    Частота : 48,0 КГц
    Битовая глубина : 16 бит
    Метод сжатия : С потерями
    Размер потока : 170 Мбайт (1%)
    Язык : Russian
    Default : Нет
    Forced : Нет
    Аудио #3
    Идентификатор : 4
    Формат : AC-3
    Формат/Информация : Audio Coding 3
    Расширение режима : CM (complete main)
    Параметр Endianness формата : Big
    Идентификатор кодека : A_AC3
    Продолжительность : 2 ч. 3 м.
    Вид битрейта : Постоянный
    Битрейт : 192 Кбит/сек
    Каналы : 2 канала
    Расположение каналов : Front: L R
    Частота : 48,0 КГц
    Битовая глубина : 16 бит
    Метод сжатия : С потерями
    Размер потока : 170 Мбайт (1%)
    Язык : Russian
    Default : Нет
    Forced : Нет
    Аудио #4
    Идентификатор : 5
    Формат : DTS
    Формат/Информация : Digital Theater Systems
    Профиль формата : MA/Core
    Идентификатор кодека : A_DTS
    Продолжительность : 2 ч. 3 м.
    Вид битрейта : Переменный
    Битрейт : 1561 Кбит/сек/1510 Кбит/сек
    Каналы : 6 каналов
    Расположение каналов : Front: L C R, Side: L R, LFE
    Частота : 48,0 КГц
    Битовая глубина : 24 бит
    Метод сжатия : Без потерь/Lossy
    Язык : English
    Default : Нет
    Forced : Нет
    Аудио #5
    Идентификатор : 6
    Формат : AC-3
    Формат/Информация : Audio Coding 3
    Расширение режима : CM (complete main)
    Параметр Endianness формата : Big
    Идентификатор кодека : A_AC3
    Продолжительность : 2 ч. 3 м.
    Вид битрейта : Постоянный
    Битрейт : 224 Кбит/сек
    Каналы : 2 канала
    Расположение каналов : Front: L R
    Частота : 48,0 КГц
    Битовая глубина : 16 бит
    Метод сжатия : С потерями
    Размер потока : 198 Мбайт (1%)
    Язык : English
    Default : Нет
    Forced : Нет
    Текст #1
    Идентификатор : 7
    Формат : UTF-8
    Идентификатор кодека : S_TEXT/UTF8
    Идентификатор кодека/Информация : UTF-8 Plain Text
    Язык : Russian
    Default : Нет
    Forced : Нет
    Текст #2
    Идентификатор : 8
    Формат : UTF-8
    Идентификатор кодека : S_TEXT/UTF8
    Идентификатор кодека/Информация : UTF-8 Plain Text
    Язык : English
    Default : Нет
    Forced : Нет
    Меню
    00:00:00.000 : en:Chapter 1
    00:04:12.669 : en:Chapter 2
    00:12:02.388 : en:Chapter 3
    00:16:36.161 : en:Chapter 4
    00:27:24.059 : en:Chapter 5
    00:32:09.427 : en:Chapter 6
    00:38:48.409 : en:Chapter 7
    00:45:14.294 : en:Chapter 8
    00:51:07.481 : en:Chapter 9
    00:55:32.537 : en:Chapter 10
    00:59:52.046 : en:Chapter 11
    01:02:28.453 : en:Chapter 12
    01:07:38.387 : en:Chapter 13
    01:12:21.628 : en:Chapter 14
    01:16:00.013 : en:Chapter 15
    01:19:40.358 : en:Chapter 16
    01:24:04.039 : en:Chapter 17
    01:32:30.378 : en:Chapter 18
    01:36:18.689 : en:Chapter 19
    01:40:38.741 : en:Chapter 20
    01:48:00.599 : en:Chapter 21
    01:51:36.940 : en:Chapter 22
    01:56:15.593 : en:Chapter 23
    01:58:52.750 : en:Chapter 24
    02:03:33.155 : en:Chapter 25

    Релиз группа NovaLan
    Автор сборки Sergei7721



    Релиз подготовил:
    Залил: Sergei7721
    Размер скачиваемого торрента: 26.30 GB (28234283764 Bytes)

    Огненные колесницы/Chariots of Fire (1981) BDRemux 1080p от NovaLan скачать через торрент бесплатно
    загрузка...
    Рейтинг →
     (голосов: 1, оценка 4/5, голосовать можно 1 раз )

    Другие торренты по теме:

  • Огненный шторм / Firestorm (1998) DVDRip-AVC от Youtracker | P торрент скачать бесплатно
  • Огненные глаза / Eyes of Fire (1983) DVDRip | L1 торрент скачать бесплатно
  • Огненная стена / Firewall (2006) BDRip 1080p | D, P2 торрент скачать бесплатно
  • Виталий Горбач - Над Огненной Дугой. Советская авиация в Курской битве (2007) PDF торрент скачать бесплатно
  • Александр Воробьев - Огненный след (2013) MP3 торрент скачать бесплатно
  • Специальный корреспондент. Огненная застава. Оставшиеся в живых (2013) SATRip торрент скачать бесплатно
  • 1000 дверей для Огненной Змеи / House of 1000 Doors 3: Serpent Flame CE (2013) РС торрент скачать бесплатно
  • Сурен Цормудян - Резервация 2051. Огненный зверь (2013) RTF, FB2, TXT торрент скачать бесплатно


    • Комментарии (0):

      Информация

      Информация

        Посетители, находящиеся в группе Гости, не могут оставлять комментарии в данной новости.

        ↓ Меню



        ↓ Опрос

        А Вы добавили сайт в закладки?
        Да
        Не


        Top 10 за неделю (Фильмы)