.
Авторизация | Регистрация
» » Ренуар. Последняя любовь / Renoir (2012) BDRemux 1080i от NovaLan скачать через торрент бесплатно




    Ренуар. Последняя любовь / Renoir (2012) BDRemux 1080i от NovaLan скачать через торрент бесплатно

    Опубликовал: Админ | Дата: 27-02-2015, 11:10 | Просмотров: 157


    Русское название:Ренуар. Последняя любовь
    Русское название в мировом прокате:Renoir
    Создали в:2012
    Категория жанра:Мелодрама
    Главный режиссер:Жиль Бурдо
    Актеры:Мишель Буке, Криста Тере, Венсан Ротье, Тома Доре, Мишель Глейзер, Романа Боринже, Карло Брандт, Хелен Бабу, Стюарт Сеиде, Пол Спера
    Сюжет фильма:
    Лазурный берег, 1915 год. Седовласый Огюст Ренуар получает известие о том, что любимый сын Жан ранен на фронте. Единственное, что скрашивает горькое отшельничество художника, - присутствие рядом молодой рыжеволосой натурщицы. Ослепительная Андре становится последней музой мастера и наполняет его мир новыми красками. Не удивительно, что вернувшийся с фронта Жан страстно влюбляется в удивительную красавицу…

    Снималось в:Франция, Fid?lit? Films, Wild Bunch, Mars Distribution
    Время просмотра:01:47:30
    Перевод текста:Профессиональный многоголосый
    Кодек для видео:H.264
    Качество фильма:Blu-Ray Remux 1080i
    Информация о видео:MPEG-4 AVC, 17999 Кбит/с, 1920х1080, 25.000 кадр/с
    Информация о звуке:Русский (AC3, 2 ch, 192 Кбит/с), французский (DTS-HD MA, 6 ch, 1962 Кбит/с), немецкий (DTS-HD MA, 6 ch, 2009 Кбит/с)
    Субтитры:Английские, французские
    Инфо-файл

    Полное имя : E:Раздачи_ERenoir.2012.BDRemux.1080i.NovaLan.mkv
    Формат : Matroska
    Версия формата : Version 4/Version 2
    Размер файла : 16,6 Гбайт
    Продолжительность : 1 ч. 47 м.
    Режим общего битрейта : Переменный
    Общий поток : 22,2 Мбит/сек
    Название фильма : Renoir 2012 - NovaLan
    Дата кодирования : UTC 2014-07-28 17:59:04
    Программа кодирования : mkvmerge v6.9.1 (;Blue Panther;) 64bit built on Apr 18 2014 18:23:38
    Библиотека кодирования : libebml v1.3.0 + libmatroska v1.4.1
    Видео
    Идентификатор : 1
    Формат : AVC
    Формат/Информация : Advanced Video Codec
    Профиль формата : High@L4.1
    Параметр CABAC формата : Да
    Параметр ReFrames формата : 4 кадра
    Идентификатор кодека : V_MPEG4/ISO/AVC
    Продолжительность : 1 ч. 47 м.
    Вид битрейта : Переменный
    Битрейт : 18,4 Мбит/сек
    Максимальный битрейт : 32,0 Мбит/сек
    Ширина : 1920 пикселей
    Высота : 1080 пикселей
    Соотношение сторон : 16:9
    Частота кадров : 25,000 кадров/сек
    Стандарт вещания : PAL
    Цветовое пространство : YUV
    Субдискретизация насыщенности : 4:2:0
    Битовая глубина : 8 бит
    Тип развёртки : MBAFF
    Бит/(Пиксели*Кадры) : 0.355
    Размер потока : 13,8 Гбайт (83%)
    Заголовок : Renoir 2012 - NovaLan
    Default : Да
    Forced : Нет
    Основные цвета : BT.709-5, BT.1361, IEC 61966-2-4, SMPTE RP177
    Характеристики трансфера : BT.709-5, BT.1361
    Коэффициенты матрицы : BT.709-5, BT.1361, IEC 61966-2-4 709, SMPTE RP177
    Аудио #1
    Идентификатор : 2
    Формат : AC-3
    Формат/Информация : Audio Coding 3
    Расширение режима : CM (complete main)
    Параметр Endianness формата : Big
    Идентификатор кодека : A_AC3
    Продолжительность : 1 ч. 47 м.
    Вид битрейта : Постоянный
    Битрейт : 192 Кбит/сек
    Каналы : 2 канала
    Расположение каналов : Front: L R
    Частота : 48,0 КГц
    Битовая глубина : 16 бит
    Метод сжатия : С потерями
    Размер потока : 148 Мбайт (1%)
    Язык : Russian
    Default : Да
    Forced : Нет
    Аудио #2
    Идентификатор : 3
    Формат : DTS
    Формат/Информация : Digital Theater Systems
    Профиль формата : MA/Core
    Идентификатор кодека : A_DTS
    Продолжительность : 1 ч. 47 м.
    Вид битрейта : Переменный
    Битрейт : 1576 Кбит/сек/1510 Кбит/сек
    Каналы : 6 каналов
    Расположение каналов : Front: L C R, Side: L R, LFE
    Частота : 48,0 КГц
    Битовая глубина : 16 бит
    Метод сжатия : Без потерь/Lossy
    Язык : French
    Default : Нет
    Forced : Нет
    Аудио #3
    Идентификатор : 4
    Формат : DTS
    Формат/Информация : Digital Theater Systems
    Профиль формата : MA/Core
    Идентификатор кодека : A_DTS
    Продолжительность : 1 ч. 47 м.
    Вид битрейта : Переменный
    Битрейт : 1576 Кбит/сек/1510 Кбит/сек
    Каналы : 6 каналов
    Расположение каналов : Front: L C R, Side: L R, LFE
    Частота : 48,0 КГц
    Битовая глубина : 16 бит
    Метод сжатия : Без потерь/Lossy
    Язык : German
    Default : Нет
    Forced : Нет
    Текст #1
    Идентификатор : 5
    Формат : UTF-8
    Идентификатор кодека : S_TEXT/UTF8
    Идентификатор кодека/Информация : UTF-8 Plain Text
    Язык : English
    Default : Нет
    Forced : Нет
    Текст #2
    Идентификатор : 6
    Формат : UTF-8
    Идентификатор кодека : S_TEXT/UTF8
    Идентификатор кодека/Информация : UTF-8 Plain Text
    Язык : French
    Default : Нет
    Forced : Нет
    Меню
    00:00:00.000 : en:Chapter 1
    00:11:27.040 : en:Chapter 2
    00:20:32.920 : en:Chapter 3
    00:31:46.480 : en:Chapter 4
    00:40:16.440 : en:Chapter 5
    00:52:00.600 : en:Chapter 6
    01:01:18.920 : en:Chapter 7
    01:11:43.560 : en:Chapter 8
    01:20:17.160 : en:Chapter 9
    01:30:04.840 : en:Chapter 10
    01:39:27.000 : en:Chapter 11
    01:43:25.320 : en:Chapter 12
    01:47:30.720 : en:Chapter 13

    Релиз группа NovaLan
    Автор сборки Sergei7721



    Релиз подготовил:
    Залил: Sergei7721
    Размер скачиваемого торрента: 16.65 GB (17872664480 Bytes)

    Ренуар. Последняя любовь/Renoir (2012) BDRemux 1080i от NovaLan скачать через торрент бесплатно
    загрузка...
    Рейтинг →
     (голосов: 1, оценка 5/5, голосовать можно 1 раз )

    Другие торренты по теме:

  • Ренуар. Последняя любовь / Renoir (2012) WEB-DLRip от Getty | P торрент скачать бесплатно
  • Ренуар. Последняя любовь / Renoir (2012) HDRip от Scarabey | Р скачать через торрент бесплатно


    • Комментарии (0):

      Информация

      Информация

        Посетители, находящиеся в группе Гости, не могут оставлять комментарии в данной новости.

        ↓ Меню



        ↓ Опрос

        А Вы добавили сайт в закладки?
        Да
        Не


        Top 10 за неделю (Фильмы)