.
Авторизация | Регистрация
» » Мы - дворяне / Nosotros los Nobles (2013) HDRip-AVC | P скачать через торрент бесплатно




    Мы - дворяне / Nosotros los Nobles (2013) HDRip-AVC | P скачать через торрент бесплатно

    Опубликовал: Админ | Дата: 27-02-2015, 11:10 | Просмотров: 167


    Детально о кино
    Русское название:Мы - дворяне
    Русское название в мировом прокате:Nosotros los Nobles
    Создали в:2013
    Категория жанра:комедия
    Главный режиссер:Гари Алазраки
    Актеры:Гонсало Вега, Карла Соуса, Луис Херардо Мендес, Хуан Пабло Хиль, Ианис Герерро, Carlos Gascon, Francisco Aguirre, Карлос Алазраки Гроссман, Гари Алазраки, Марк Алазраки
    Сюжет фильма:
    Богатый папаша решил проучить своих отпрысков-бездельников и сказал им, что обанкротился. Чтобы обеспечить себя, великовозрастным детишкам пришлось пойти работать.

    Снималось в:Мексика
    Киностудия:Alazraki Films
    Время просмотра:01:48:09
    Перевод текста:Профессиональное (многоголосое) -НТВ+
    Файл
    Кодек для видео:h.264 (MKV)
    Качество фильма:HDRip-AVC
    Информация о видео:AVС, 1024 x 576, ~1966 kbps
    Информация о звуке:AC-3, 2 ch, 256 kbps
    Субтитры:нет
    Семпл
    Скриншоты для ознакомления
    MI
    Общее
    Уникальный идентификатор : 168348648403719580577546155723716462494 (0x7EA6C532C2870C1E037BA147C20E879E)
    Полное имя : G: Мы - дворяне Nosotros los Nobles (2013)Mu.dvoryani.P.2013.HDRip.1400Mb (1).mkv
    Формат : Matroska
    Версия формата : Version 2
    Размер файла : 1,71 Гбайт
    Продолжительность : 1 ч. 48 м.
    Общий поток : 2268 Кбит/сек
    Программа кодирования : Lavf51.12.1
    Библиотека кодирования : Lavf51.12.1
    Видео
    Идентификатор : 1
    Формат : AVC
    Формат/Информация : Advanced Video Codec
    Профиль формата : Main@L1.3
    Параметр CABAC формата : Да
    Параметр ReFrames формата : 1 кадр
    Параметр GOP формата : M=1, N=12
    Идентификатор кодека : V_MPEG4/ISO/AVC
    Продолжительность : 1 ч. 48 м.
    Битрейт : 1966 Кбит/сек
    Ширина : 1024 пикселя
    Высота : 576 пикселей
    Соотношение сторон : 16:9
    Режим частоты кадров : Постоянный
    Частота кадров : 23,976 кадра/сек
    Цветовое пространство : YUV
    Субдискретизация насыщенности : 4:2:0
    Битовая глубина : 8 бит
    Тип развёртки : Прогрессивная
    Бит/(Пиксели*Кадры) : 0.139
    Размер потока : 1,49 Гбайт (87%)
    Default : Да
    Forced : Нет
    Аудио
    Идентификатор : 2
    Формат : AC-3
    Формат/Информация : Audio Coding 3
    Расширение режима : CM (complete main)
    Параметр Endianness формата : Big
    Идентификатор кодека : A_AC3
    Продолжительность : 1 ч. 48 м.
    Вид битрейта : Постоянный
    Битрейт : 256 Кбит/сек
    Каналы : 2 канала
    Расположение каналов : Front: L R
    Частота : 48,0 КГц
    Битовая глубина : 16 бит
    Метод сжатия : С потерями
    Размер потока : 198 Мбайт (11%)
    Default : Да
    Forced : Нет

    Размер скачиваемого торрента: 1.71 GB (1839349312 Bytes)

    Мы - дворяне/Nosotros los Nobles (2013) HDRip-AVC | P скачать через торрент бесплатно
    загрузка...
    Рейтинг →
     (голосов: 1, оценка 3/5, голосовать можно 1 раз )

    Другие торренты по теме:



      Комментарии (0):

      Информация

      Информация

        Посетители, находящиеся в группе Гости, не могут оставлять комментарии в данной новости.

        ↓ Меню



        ↓ Опрос

        А Вы добавили сайт в закладки?
        Да
        Не


        Top 10 за неделю (Фильмы)