.
Авторизация | Регистрация
Хочешь лучшие торренты? Добавь свой email!
Добавить
» » Машина / The Machine (2013) BDRip 720p от marury скачать через торрент бесплатно




    Машина / The Machine (2013) BDRip 720p от marury скачать через торрент бесплатно

    Опубликовал: Админ | Дата: 27-02-2015, 11:10 | Просмотров: 209


    Детально о кино
    Русское название:Машина
    Русское название в мировом прокате:The Machine
    Создали в:2013
    Категория жанра:Фантастика, триллер
    Главный режиссер:Карадог В. Джеймс
    Актеры:Кейти Лотц, Тоби Стивенс, Сэм Хэзелдайн, Дэнис Лосон, Ли Николас Харрис, Бен МакГрегор, Хелен Гриффин, Суле Рими
    Сюжет фильма:
    Нестабильная ситуация на мировой арене заставляет все государства принимать на вооружение всё более и более опасные технологии. Вот и британское правительство, заинтересованное в появлении оружия нового поколения, обращается за помощью к известному ученому – Винсенту МакКарти. Вскоре тот создаёт Машину – уникального андроида, обладающего потрясающими способностями, однако из-за ошибки в программном обеспечении тот разрушает лабораторию своего создателя. Теперь МакКарти приходится обратиться к Аву – специалисту по искусственному интеллекту, – чтобы с его помощью создать идеальное оружие!
    Снималось в:Великобритания
    Время просмотра:01:30:28
    Перевод текста:Любительский одноголосый
    Файл
    Кодек для видео:MPEG-4 AVC,
    Качество фильма:BDRip (720p)
    Информация о видео:5497 Кбит/с, 1280x720
    Информация о звуке:Русский (DTS, 6 ch, 768 Кбит/с), (AC3, 2 ch, 192 Кбит/с), английский (DTS, 6 ch, 768 Кбит/с)
    Субтитры:Русские, английские
    Инфо-файл

    Общее
    Уникальный идентификатор : 214034785148415116026276867012517321700 (0xA10599A5C681AFA2BC47DF6CFAC65BE4)
    Полное имя : D:ПрогиThe.Machine.2013.720p.marcury.mkv
    Формат : Matroska
    Версия формата : Version 4/Version 2
    Размер файла : 4,81 Гбайт
    Продолжительность : 1 ч. 30 м.
    Общий поток : 7618 Кбит/сек
    Название фильма : The Machine/2013 - Release for marcury
    Дата кодирования : UTC 2014-07-25 21:17:05
    Программа кодирования : mkvmerge v7.0.0 (;Where We Going;) 32bit built on Jun 9 2014 15:08:34
    Библиотека кодирования : libebml v1.3.0 + libmatroska v1.4.1
    DURATION : 01:30:28.096000000
    NUMBER_OF_FRAMES : 508884
    NUMBER_OF_BYTES : 521098616
    _STATISTICS_WRITING_APP : mkvmerge v7.0.0 (;Where We Going;) 32bit built on Jun 9 2014 15:08:34
    _STATISTICS_WRITING_DATE_UTC : 2014-07-25 21:17:05
    _STATISTICS_TAGS : BPS DURATION NUMBER_OF_FRAMES NUMBER_OF_BYTES
    Видео
    Идентификатор : 1
    Формат : AVC
    Формат/Информация : Advanced Video Codec
    Профиль формата : High@L3.1
    Параметр CABAC формата : Да
    Параметр ReFrames формата : 5 кадров
    Идентификатор кодека : V_MPEG4/ISO/AVC
    Продолжительность : 1 ч. 30 м.
    Битрейт : 5482 Кбит/сек
    Ширина : 1280 пикселей
    Высота : 720 пикселей
    Соотношение сторон : 16:9
    Режим частоты кадров : Постоянный
    Частота кадров : 23,976 кадра/сек
    Цветовое пространство : YUV
    Субдискретизация насыщенности : 4:2:0
    Битовая глубина : 8 бит
    Тип развёртки : Прогрессивная
    Бит/(Пиксели*Кадры) : 0.248
    Размер потока : 3,46 Гбайт (72%)
    Заголовок : The Machine/2013 - marcury
    Язык : English
    Default : Да
    Forced : Нет
    DURATION : 01:30:28.090000000
    NUMBER_OF_FRAMES : 130144
    NUMBER_OF_BYTES : 3820380144
    _STATISTICS_WRITING_APP : mkvmerge v7.0.0 (;Where We Going;) 32bit built on Jun 9 2014 15:08:34
    _STATISTICS_WRITING_DATE_UTC : 2014-07-25 21:17:05
    _STATISTICS_TAGS : BPS DURATION NUMBER_OF_FRAMES NUMBER_OF_BYTES
    Аудио #1
    Идентификатор : 2
    Формат : DTS
    Формат/Информация : Digital Theater Systems
    Режим : 16
    Параметр Endianness формата : Big
    Идентификатор кодека : A_DTS
    Продолжительность : 1 ч. 30 м.
    Вид битрейта : Постоянный
    Битрейт : 768 Кбит/сек
    Каналы : 6 каналов
    Расположение каналов : Front: L C R, Side: L R, LFE
    Частота : 48,0 КГц
    Битовая глубина : 24 бит
    Метод сжатия : С потерями
    Размер потока : 497 Мбайт (10%)
    Заголовок : Русский (DTS, 6 ch, 768 Кбит/с)
    Язык : Russian
    Default : Нет
    Forced : Да
    Аудио #2
    Идентификатор : 3
    Формат : AC-3
    Формат/Информация : Audio Coding 3
    Расширение режима : CM (complete main)
    Параметр Endianness формата : Big
    Идентификатор кодека : A_AC3
    Продолжительность : 1 ч. 30 м.
    Вид битрейта : Постоянный
    Битрейт : 448 Кбит/сек
    Каналы : 2 канала
    Расположение каналов : Front: L R
    Частота : 48,0 КГц
    Битовая глубина : 16 бит
    Метод сжатия : С потерями
    Размер потока : 290 Мбайт (6%)
    Заголовок : Русский (AC3, 2 ch, 192 Кбит/с)
    Язык : Russian
    Default : Нет
    Forced : Нет
    Аудио #3
    Идентификатор : 4
    Формат : DTS
    Формат/Информация : Digital Theater Systems
    Режим : 16
    Параметр Endianness формата : Big
    Идентификатор кодека : A_DTS
    Продолжительность : 1 ч. 30 м.
    Вид битрейта : Постоянный
    Битрейт : 768 Кбит/сек
    Каналы : 6 каналов
    Расположение каналов : Front: L C R, Side: L R, LFE
    Частота : 48,0 КГц
    Битовая глубина : 24 бит
    Метод сжатия : С потерями
    Размер потока : 497 Мбайт (10%)
    Заголовок : Английский (DTS, 6 ch, 768 Кбит/с)
    Язык : English
    Default : Нет
    Forced : Нет
    Текст #1
    Идентификатор : 5
    Формат : UTF-8
    Идентификатор кодека : S_TEXT/UTF8
    Идентификатор кодека/Информация : UTF-8 Plain Text
    Заголовок : ХиХиДок
    Язык : Russian
    Default : Нет
    Forced : Нет
    Текст #2
    Идентификатор : 6
    Формат : UTF-8
    Идентификатор кодека : S_TEXT/UTF8
    Идентификатор кодека/Информация : UTF-8 Plain Text
    Язык : English
    Default : Нет
    Forced : Нет
    Меню
    00:00:00.000 : en:00:00:00.000
    00:06:34.394 : en:00:06:34.394
    00:14:32.955 : en:00:14:32.955
    00:22:19.713 : en:00:22:19.713
    00:29:09.665 : en:00:29:09.665
    00:35:19.326 : en:00:35:19.326
    00:44:41.470 : en:00:44:41.470
    00:51:20.619 : en:00:51:20.619
    00:59:40.452 : en:00:59:40.452
    01:05:41.604 : en:01:05:41.604
    01:13:27.737 : en:01:13:27.737
    01:20:41.628 : en:01:20:41.628

    Скриншоты для ознакомления

    Релиз подготовил:
    Залил: abcdefg
    Размер скачиваемого торрента: 4.81 GB (5169030513 Bytes)

    Машина/The Machine (2013) BDRip 720p от marury скачать через торрент бесплатно
    загрузка...
    Рейтинг →
     (голосов: 1, оценка 3/5, голосовать можно 1 раз )

    Другие торренты по теме:

  • Успенский Михаил - Райская машина (2011) MP3
  • Машина Времени и Воскресение 50 лет на двоих (2000-2004) DVDRip-AVC
  • OST - Машина времени / The Time Machine (1960) MP3
  • Машина Времени. Ловушка (2010) PC | Repack от R.G. UPG
  • Машина Времени и Воскресение - 50 лет на двоих в Кремле (2000) DVDRip
  • Машина смерти / Death Machine (1994) DVDRip от NovaLan
  • Тачки: Байки Мэтра - Мэтр - машина времени / Time Travel Mater (2012) BDRip 1080p
  • Летающая машина / Волшебная страна / The Flying Machine (2011) HDRip | Лицензия


    • Комментарии (0):

      Информация

      Информация

        Посетители, находящиеся в группе Гости, не могут оставлять комментарии в данной новости.

        ↓ Меню



        ↓ Опрос

        А Вы добавили сайт в закладки?
        Да
        Не


        Top 10 за месяц (Фильмы)