.
Авторизация | Регистрация
Хочешь лучшие торренты? Добавь свой email!
Добавить
» » Сокровища мертвых (2002) DVD-9 скачать через торрент бесплатно




    Сокровища мертвых (2002) DVD-9 скачать через торрент бесплатно

    Опубликовал: Админ | Дата: 27-02-2015, 11:10 | Просмотров: 328


    Детально о кино
    Русское название в мировом прокате:Сокровища мертвых
    Создали в:2002
    Категория жанра:Приключения, боевик
    Главный режиссер:Игорь Шавлак
    Актеры:Михаил Мамаев, Светлана Меткина, Владимир Нисков, Алла Ковнир, Игнат Акрачков, Алексей Моисеев, Валерий Гурьев (I), Дилия Рузиева, Елена Елова, Владимир Свешников
    Сюжет фильма:1934 год, Западная Сибирь. Группа красноармейцев преследует профессора Звягинцева, исследующего путь к пещере, в которой хранится языческое божество. Этому злому идолу издавна поклоняются северные народы... Спустя многие годы молодые ученые решили пройти путь, указанный их погибшим коллегой. В прошлом студенты-однокашники, в поисках сокровищ они приезжают в Западную Сибирь, но теперь за ними гонится не отряд НКВД, а группа бандитов.

    Снималось в:Россия
    Киностудия:ЮГРА, Централ Партнершип
    Время просмотра:6 х ~ 00:51:00
    Язык:Русский
    Файл
    Кодек для видео:MPEG-2
    Качество фильма:DVD-9
    Информация о видео:NTSC 4:3 (720x480) VBR
    Информация о звуке:Русский (Dolby AC3, 2 ch)
    Меню

    DVDInfo
    Title: DATA
    Size: 4.97 Gb ( 5 213 298 KBytes ) - DVD-9
    Enabled regions: 1, 2, 3, 4, 5, 6
    VTS_01 :
    Play Length: 00:00:08
    Video: NTSC 4:3 (720x480) VBR
    VTS_02 :
    Play Length: 00:00:11
    Video: NTSC 4:3 (720x480) VBR
    Audio:
    Not specified (Dolby AC3, 6 ch)
    Not specified (Dolby AC3, 6 ch)
    Subtitles:
    English
    VTS_03 :
    Play Length: 00:00:16
    Video: NTSC 4:3 (720x480) VBR
    Audio:
    Not specified (Dolby AC3, 2 ch)
    Not specified (Dolby AC3, 2 ch)
    Subtitles:
    Not specified
    VTS_04 :
    Play Length: 00:51:14
    Video: NTSC 4:3 (720x480) VBR
    Audio:
    Russian (Dolby AC3, 2 ch)
    VTS_05 :
    Play Length: 00:51:39
    Video: NTSC 4:3 (720x480) VBR
    Audio:
    Russian (Dolby AC3, 2 ch)
    VTS_06 :
    Play Length: 00:50:19
    Video: NTSC 4:3 (720x480) VBR
    Audio:
    Russian (Dolby AC3, 2 ch)
    VTS_07 :
    Play Length: 00:50:47
    Video: NTSC 4:3 (720x480) VBR
    Audio:
    Russian (Dolby AC3, 2 ch)
    VTS_08 :
    Play Length: 00:51:38
    Video: NTSC 4:3 (720x480) VBR
    Audio:
    Russian (Dolby AC3, 2 ch)
    VTS_09 :
    Play Length: 00:50:08
    Video: NTSC 4:3 (720x480) VBR
    Audio:
    Russian (Dolby AC3, 2 ch)
    Menu Video:
    NTSC 16:9 (720x480) VBR
    Auto PanScan, Auto Letterboxed
    Menu Subtitles:
    Not specified
    Menu English Language Unit :
    Root Menu

    MediaInfo
    Общее
    Полное имя : D:залитьСОКРОВИЩА МЕРТВЫХVIDEO_TSVTS_04_1.VOB
    Формат : MPEG-PS
    Размер файла : 829 Мбайт
    Продолжительность : 51 м.
    Режим общего битрейта : Переменный
    Общий поток : 2259 Кбит/сек
    Видео
    Идентификатор : 224 (0xE0)
    Формат : MPEG Video
    Версия формата : Version 2
    Профиль формата : Main@Main
    Параметр BVOP формата : Да
    Параметр матрицы формата : Выборочная
    Параметр GOP формата : M=3, N=15
    Продолжительность : 51 м.
    Вид битрейта : Переменный
    Битрейт : 2022 Кбит/сек
    Максимальный битрейт : 6000 Кбит/сек
    Ширина : 352 пикселя
    Высота : 480 пикселей
    Соотношение сторон : 4:3
    Частота кадров : 29,970 кадров/сек
    Стандарт вещания : NTSC
    Цветовое пространство : YUV
    Субдискретизация насыщенности : 4:2:0
    Битовая глубина : 8 бит
    Тип развёртки : Чересстрочная
    Порядок развёртки : Верхнее поле первое
    Метод сжатия : С потерями
    Бит/(Пиксели*Кадры) : 0.399
    TimeCode_FirstFrame : 00:01:32:21
    TimeCode_Source : Group of pictures t_head
    Размер потока : 742 Мбайт (90%)
    Аудио
    Идентификатор : 189 (0xBD)-128 (0x80)
    Формат : AC-3
    Формат/Информация : Audio Coding 3
    Расширение режима : CM (complete main)
    Параметр Endianness формата : Big
    Режим смешивания : DVD-Video
    Продолжительность : 51 м.
    Вид битрейта : Постоянный
    Битрейт : 192 Кбит/сек
    Каналы : 2 канала
    Расположение каналов : Front: L R
    Частота : 48,0 КГц
    Битовая глубина : 16 бит
    Метод сжатия : С потерями
    Размер потока : 70,4 Мбайт (8%)
    Меню

    Скриншоты для ознакомления

    Залил: YArl
    Размер скачиваемого торрента: 4.97 GB (5338417152 Bytes)

    Сокровища мертвых (2002) DVD-9 скачать через торрент бесплатно
    загрузка...
    Рейтинг →
     (голосов: 1, оценка 5/5, голосовать можно 1 раз )

    Другие торренты по теме:

  • Сокровища Монтесумы. Трилогия (2006-2011) PC
  • Сокровища серебряного озера / Der Schatz im Silbersee (1962) HDRip-AVC
  • Сокровища короля / Royal Gems (2013) PC | RePack от adguard
  • Сокровища Анимации. Гуфи. Коллекционное издание (2007) 4xDVD5 2xDVD9
  • Принцесса-лебедь 3: Тайна заколдованного сокровища / The Swan Princess and the Mystery of the Enchanted Treasure (1998) DVDRip-AVC от Тorren
  • Сокровища Монтесумы 4 / The Treasures of Montezuma 4 (2013) PC
  • Сокровища чёрного ягуара / Treasure of the Black Jaguar (2010) HDTVRip от ClubTorrent | P2
  • Сокровища чёрного ягуара / Treasure of the Black Jaguar (2010) HDTVRip 720p от ClubTorrent | P2


    • Комментарии (0):

      Информация

      Информация

        Посетители, находящиеся в группе Гости, не могут оставлять комментарии в данной новости.

        ↓ Меню



        ↓ Опрос

        А Вы добавили сайт в закладки?
        Да
        Не


        Top 10 за месяц (Фильмы)