.
Авторизация | Регистрация
Хочешь лучшие торренты? Добавь свой email!
Добавить
» » Багровый лепесток и белый / The Crimson Petal and the White (2011) HDTVRip | P скачать через торрент бесплатно




    Багровый лепесток и белый / The Crimson Petal and the White (2011) HDTVRip | P скачать через торрент бесплатно

    Опубликовал: Админ | Дата: 27-02-2015, 11:10 | Просмотров: 246


    Детально о кино
    Русское название:Багровый лепесток и белый
    Русское название в мировом прокате:The Crimson Petal and the White
    Создали в:2011
    Категория жанра:драма, мелодрама
    Главный режиссер:Марк Манден
    Актеры:Ромола Гарай, Крис О’Дауд, Аманда Хейл, Ширли Хендерсон, Кэти Лайонс, Элинор Йэтс, Элизабет Беррингтон, Ричард Э. Грант, Джеймс Уилсон, Клер Луиз Коннолли
    Сюжет фильма:
    Несентиментальная история девятнадцатилетней проститутки по имени Конфетка, события которой разворачиваются в викторианском Лондоне. В центре этой мелодрамы без мелодрам — стремление юной женщины не быть товаром, вырвать свое тело и душу из трущоб. Мы близко познакомимся с наследником процветающего парфюмерного дела Уильямом Рэкхэмом и его невинной, хрупкого душевного устройства женой Агнес, с его спрятанной дочерью Софи и набожным братом Генри, мучимым конфликтом между мирским и безгреховным. Мы встретимся также с эрудированными распутниками, слугами себе на уме, беспризорниками, уличными девками, реформаторами из общества спасения.

    Снималось в:Великобритания
    Киностудия:BBC Television Centre, Cit?-Am?rique, Origin Pictures, Lip Sync Post, Rushes Post Production Ltd.
    Время просмотра:~00:59:00 серия
    Перевод текста:Профессиональный (многоголосый закадровый) ТК Домашний
    Файл
    Кодек для видео:XviD/AC3
    Качество фильма:HDTVRip
    Информация о видео:MPEG4, XviD, 624x352 (16:9), 25.000 fps, 1 161 Kbps (0.211 bit/pixel)
    Информация о звуке:AC-3, 48.0 KHz, 2 ch, 192 Kbps, CBR
    Скриншоты для ознакомления
    Screenshots
    MediaInfo
    General
    Complete name : /Багровый лепесток и белый/Багровый лепесток и белый 1с.avi
    Format : AVI
    Format/Info : Audio Video Interleave
    File size : 575 MiB
    Duration : 59mn 2s
    Overall bit rate : 1 363 Kbps
    Writing application : VirtualDubMod 1.5.10.2 (build 2540/release)
    Writing library : VirtualDubMod build 2540/release
    Video
    ID : 0
    Format : MPEG-4 Visual
    Format profile : Advanced Simple@L5
    Format settings, BVOP : 2
    Format settings, QPel : No
    Format settings, GMC : No warppoints
    Format settings, Matrix : Default (H.263)
    Codec ID : XVID
    Codec ID/Hint : XviD
    Duration : 59mn 2s
    Bit rate : 1 161 Kbps
    Width : 624 pixels
    Height : 352 pixels
    Display aspect ratio : 16:9
    Frame rate : 25.000 fps
    Color space : YUV
    Chroma subsampling : 4:2:0
    Bit depth : 8 bits
    Scan type : Progressive
    Compression mode : Lossy
    Bits/(Pixel*Frame) : 0.211
    Stream size : 490 MiB (85%)
    Writing library : XviD 1.2.1 (UTC 2008-12-04)
    Audio
    ID : 1
    Format : AC-3
    Format/Info : Audio Coding 3
    Mode extension : CM (complete main)
    Format settings, Endianness : Big
    Codec ID : 2000
    Duration : 59mn 2s
    Bit rate mode : Constant
    Bit rate : 192 Kbps
    Channel(s) : 2 channels
    Channel positions : Front: L R
    Sampling rate : 48.0 KHz
    Bit depth : 16 bits
    Compression mode : Lossy
    Stream size : 81.1 MiB (14%)
    Alignment : Split accross interleaves
    Interleave, duration : 40 ms (1.00 video frame)
    Interleave, preload duration : 500 ms

    Доп.инфо:На Домашнем все шпили-вили, сиськи-письки поотрезали. Поэтому, если где женщина вдруг забасит, то это любительский одноголосый закадровый перевод (Alekseevi4)
    Размер скачиваемого торрента: 2.25 GB (2411507712 Bytes)

    Багровый лепесток и белый/The Crimson Petal and the White (2011) HDTVRip | P скачать через торрент бесплатно
    загрузка...
    Рейтинг →
     (голосов: 1, оценка 5/5, голосовать можно 1 раз )

    Другие торренты по теме:

  • Багровый прилив / Crimson Tide (1995) BDRip 1080p
  • Багровый прилив / Crimson Tide (1995) BDRip от KinoRay Sheikn | P, P2, A скачать через торрент бесплатно
  • Багровый прилив / Crimson Tide (1995) BDRemux 1080p | P, A
  • Багровый пик (2015) качество HDRip
  • Багровый пик / Crimson Peak (2015) WEB-DL 1080p | iTunes
  • Багровый пик / Crimson Peak (2015) BDRip-AVC от ExKinoRay | iTunes
  • Багровый пик / Crimson Peak (2015) BDRip 1080p | Лицензия
  • Багровый пик / Crimson Peak (2015) BDRip | Лицензия


    • Комментарии (0):

      Информация

      Информация

        Посетители, находящиеся в группе Гости, не могут оставлять комментарии в данной новости.

        ↓ Меню



        ↓ Опрос

        А Вы добавили сайт в закладки?
        Да
        Не


        Top 10 за месяц (Фильмы)