.
Авторизация | Регистрация
Хочешь лучшие торренты? Добавь свой email!
Добавить
» » Новый мир / New World (2013) DVB от MediaClub | P2 торрент скачать бесплатно




    Новый мир / New World (2013) DVB от MediaClub | P2 торрент скачать бесплатно

    Опубликовал: Админ | Дата: 27-02-2015, 11:10 | Просмотров: 129


    Детально о кино
    Русское название:Новый мир
    Русское название в мировом прокате:New World
    Создали в:2013
    Категория жанра:Триллер
    Главный режиссер:Пак Хун Джон
    Актеры:Мин Сик Чхве, Хван Чжон Мин, Чан Гван, Ли Чжон-чжэ, Пак Сон-Ун, Сон Чжи Хё
    Сюжет фильма:
    Детектив проникает в одну из крупнейших преступных группировок в стране и оказывается вовлеченным в борьбу за место главы банды, когда тот умирает…

    Снималось в:Южная Корея
    Киностудия:Sanai Pictures
    Время просмотра:02:09:45
    Перевод текста:Профессиональный двухголосый (НТВ+)
    Файл
    Качество фильма:DVB
    Информация о видео:MPEG-2, 2237 Кбит/с, 720x576@1024x576
    Информация о звуке:Русский (АС3, 6 ch, 384 Кбит/с)/(MP2, 2 ch, 192 Кбит/с)
    Семпл
    Скриншоты для ознакомления

    MI
    Общее
    Идентификатор : 1 (0x1)
    Полное имя : Novyj.mir.2013.DVB.MediaClub.ts
    Формат : MPEG-TS
    Размер файла : 2,69 Гбайт
    Продолжительность : 2 ч. 9 м.
    Режим общего битрейта : Переменный
    Общий поток : 2966 Кбит/сек
    Видео
    Идентификатор : 322 (0x142)
    Идентификатор меню : 10103 (0x2777)
    Формат : MPEG Video
    Версия формата : Version 2
    Профиль формата : Main@Main
    Параметр BVOP формата : Да
    Параметр матрицы формата : Выборочная
    Параметр GOP формата : M=3, N=36
    Идентификатор кодека : 2
    Продолжительность : 2 ч. 9 м.
    Вид битрейта : Переменный
    Битрейт : 2237 Кбит/сек
    Максимальный битрейт : 15,0 Мбит/сек
    Ширина : 720 пикселей
    Высота : 576 пикселей
    Соотношение сторон : 16:9
    Частота кадров : 25,000 кадров/сек
    Стандарт вещания : PAL
    Цветовое пространство : YUV
    Субдискретизация насыщенности : 4:2:0
    Битовая глубина : 8 бит
    Тип развёртки : Чересстрочная
    Порядок развёртки : Верхнее поле первое
    Метод сжатия : С потерями
    Бит/(Пиксели*Кадры) : 0.216
    Размер потока : 2,03 Гбайт (75%)
    Аудио #1
    Идентификатор : 405 (0x195)
    Идентификатор меню : 10103 (0x2777)
    Формат : MPEG Audio
    Версия формата : Version 1
    Профиль формата : Layer 2
    Идентификатор кодека : 4
    Продолжительность : 2 ч. 9 м.
    Вид битрейта : Постоянный
    Битрейт : 192 Кбит/сек
    Каналы : 2 канала
    Частота : 48,0 КГц
    Метод сжатия : С потерями
    Задержка видео : -408 мс.
    Размер потока : 178 Мбайт (6%)
    Язык : Russian
    Язык, дополнительно : Clean effects
    Аудио #2
    Идентификатор : 435 (0x1B3)
    Идентификатор меню : 10103 (0x2777)
    Формат : AC-3
    Формат/Информация : Audio Coding 3
    Расширение режима : CM (complete main)
    Параметр Endianness формата : Big
    Идентификатор кодека : 6
    Продолжительность : 2 ч. 9 м.
    Вид битрейта : Постоянный
    Битрейт : 384 Кбит/сек
    Каналы : 6 каналов
    Расположение каналов : Front: L C R, Side: L R, LFE
    Частота : 48,0 КГц
    Битовая глубина : 16 бит
    Метод сжатия : С потерями
    Задержка видео : -408 мс.
    Размер потока : 356 Мбайт (13%)
    Язык : Russian
    Меню
    Идентификатор : 102 (0x66)
    Идентификатор меню : 10103 (0x2777)
    Продолжительность : 2 ч. 9 м.
    Список : 322 (0x142) (MPEG Video)/405 (0x195) (MPEG Audio, Russian)/435 (0x1B3) (AC-3, Russian)
    Язык :/Russian/Russian

    Релиз подготовил:
    Залил: poja
    Размер скачиваемого торрента: 2.69 GB (2886653332 Bytes)

    Новый мир/New World (2013) DVB от MediaClub | P2 торрент скачать бесплатно
    загрузка...
    Рейтинг →
     (голосов: 1, оценка 5/5, голосовать можно 1 раз )

    Другие торренты по теме:

  • Портал юрского периода: Новый мир / Первобытное: Новый мир / Primеvаl: New World (2012) HDTVRip 720р | BaibaKo
  • DJ Smash - Новый мир (2012) MP3 от AGR - Generalfilm
  • Новый Мир / Arata-naru Sekai (2012) BDRip 720p | AniFilm
  • Новый мир: Начало / Загрузка / Конец / Arata-naru Sekai: Worlds / Start / Load / End (2012) BDRip
  • Новый мир / New World (2013) BDRip-AVC от MediaClub | L2
  • Новый мир / New World (2013) BDRip 720p от leonardo 59 Scarabey | L2
  • Жара Ёлка - Новый Мир (2013) HD 720p скачать через торрент бесплатно
  • Портал юрского периода: Новый мир / Primevаl: Nеw Wоrld (2012-2013) Blu-Ray Remux (1080p) от HDClub скачать через торрент бесплатно


    • Комментарии (0):

      Информация

      Информация

        Посетители, находящиеся в группе Гости, не могут оставлять комментарии в данной новости.

        ↓ Меню



        ↓ Опрос

        А Вы добавили сайт в закладки?
        Да
        Не


        Top 10 за месяц (Фильмы)