.
Авторизация | Регистрация
Хочешь лучшие торренты? Добавь свой email!
Добавить
» » Летучие мыши / Bats (1999) HDTVRip от Leon-masl | P скачать через торрент бесплатно




    Летучие мыши / Bats (1999) HDTVRip от Leon-masl | P скачать через торрент бесплатно

    Опубликовал: Админ | Дата: 27-02-2015, 11:10 | Просмотров: 190


    Детально о кино
    Русское название:Летучие мыши
    Русское название в мировом прокате:Bats
    Создали в:1999
    Категория жанра:ужасы, триллер
    Главный режиссер:Луи Морно/Louis Morneau
    Актеры:Лу Даймонд Филлипс(Sheriff Emmett Kimsey), Дина Мейер(Dr. Sheila Casper),Боб Гантон(Dr. Alexander McCabe), Леон (Jimmy Sands), Карлос Джекотт (Dr. Tobe Hodge), Дэвид МакКоннелл (Deputy Wesley Munn), Марсия Дэнгерфилд (Mayor Amanda Branson), Оскар Роулэнд (Dr. Swanbeck), Тим Уайтакер (Quint), Джулиана Джонсон (Emma), Джеймс Си (Sergeant James), Нед Беллами (Major Reid)
    Сюжет фильма:
    Полная луна выходит на ночной небосклон. Но не стоит слишком долго любоваться ее чарующим светом. Очень скоро вас атакует кромешный мрак, и с онемевших от ужаса небес спуститься ожившая тьма, несущая на своих крыльях смерть. Бесчисленные легионы летучих мышей обрушиться на землю кровавым дождем, что бы утолить свою жажду. И даже в самом темном закоулке жителям спящего города не укрыться от вездесущей тьмы…

    Снималось в:США
    Время просмотра:01:27:19
    Перевод текста:Профессиональный (многоголосый, закадровый)
    Файл
    Кодек для видео:XviD
    Качество фильма:HDTVRip
    Информация о видео:720x304, 25 fps, XviD build 73 ~1938 kbps
    Информация о звуке:48 kHz, AC3 Dolby Digital, 3/2 (L,C,R,l,r) + LFE ch, ~448 kbps
    MI
    Общее
    Полное имя : Bats.1999.HDTVRip.avi
    Формат : AVI
    Формат/Информация : Audio Video Interleave
    Размер файла : 1,46 Гбайт
    Продолжительность : 1 ч. 27 м.
    Общий поток : 2395 Кбит/сек
    Программа кодирования : VirtualDubMod 1.5.10.3 | www.virtualdub-fr.org || (build 2550/release)
    Библиотека кодирования : VirtualDubMod build 2550/release
    Видео
    Идентификатор : 0
    Формат : MPEG-4 Visual
    Профиль формата : Advanced Simple@L5
    Параметр BVOP формата : 1
    Параметр QPel формата : Нет
    Параметр GMC формата : Без точки перехода
    Параметр матрицы формата : Выборочная
    Идентификатор кодека : XVID
    Идентификатор кодека/Подсказка : XviD
    Продолжительность : 1 ч. 27 м.
    Битрейт : 1938 Кбит/сек
    Ширина : 720 пикс.
    Высота : 304 пикс.
    Соотношение сторон : 2,35:1
    Частота кадров : 25,000 кадр/сек
    Цветовое пространство : YUV
    Подвыборка цветности : 4:2:0
    Битовая глубина : 8 бит
    Тип развёртки : Прогрессивная
    Метод сжатия : С потерями
    Бит/(Пиксели*Кадры) : 0.354
    Размер потока : 1,18 Гбайт (81%)
    Библиотека кодирования : XviD 73
    Аудио
    Идентификатор : 1
    Формат : AC-3
    Формат/Информация : Audio Coding 3
    Расширение режима : CM (complete main)
    Идентификатор кодека : 2000
    Продолжительность : 1 ч. 27 м.
    Вид битрейта : Постоянный
    Битрейт : 448 Кбит/сек
    Канал(ы) : 6 канала(ов)
    Расположение каналов : Front: L C R, Side: L R, LFE
    Частота : 48,0 КГц
    Битовая глубина : 16 бит
    Метод сжатия : С потерями
    Размер потока : 280 Мбайт (19%)
    Выравнивание : Разделение по промежуткам
    Продолжительность промежутка : 40 мс. (1,00 видеокадр)
    Время предзагрузки промежутка : 500 ms
    Скриншоты для ознакомления

    Релиз подготовил:Leon-masl
    Залил: leon-masl
    Размер скачиваемого торрента: 1.46 GB (1568753664 Bytes)

    Летучие мыши/Bats (1999) HDTVRip от Leon-masl | P скачать через торрент бесплатно
    загрузка...
    Рейтинг →
     (голосов: 1, оценка 4/5, голосовать можно 1 раз )

    Другие торренты по теме:

  • Летучие мыши / Bats (1999) HDTVRip-AVC от -=HD-NET=- скачать через торрент бесплатно
  • Летучие мыши / Bats (1999) HDTVRip | P
  • Летучие мыши / Bats (1999) HDTVRip | A
  • Летучие мыши / Bats (1999) HDTVRip-AVC от lexx256 | P


    • Комментарии (0):

      Информация

      Информация

        Посетители, находящиеся в группе Гости, не могут оставлять комментарии в данной новости.

        ↓ Меню



        ↓ Опрос

        А Вы добавили сайт в закладки?
        Да
        Не


        Top 10 за месяц (Фильмы)