.
Авторизация | Регистрация
» » Герой-одиночка / Last man standing (1996) HDRip от Leon-masl | A скачать через торрент бесплатно




    Герой-одиночка / Last man standing (1996) HDRip от Leon-masl | A скачать через торрент бесплатно

    Опубликовал: Админ | Дата: 27-02-2015, 11:10 | Просмотров: 309


    Детально о кино
    Русское название:Герой-одиночка
    Русское название в мировом прокате:Last man standing
    Создали в:1996
    Категория жанра:Боевик, Триллер, Драма, Криминал
    Главный режиссер:Уолтер Хилл/Walter Hill
    Актеры:Брюс Уиллис,Кристофер Уокен, Александра Пауэрс, Дэвид Патрик Келли, Уильям Сэндерсон, Карина Ломбард, Нед Айзенберг, Майкл Империоли, Кен Дженкинс, Р. Д. Колл, Лесли Манн,Брюс Дерн
    Сюжет фильма:
    Америка, времена сухого закона. Бродяга и наемник Джон Смит по пути к мексиканской границе оказывается в маленьком техасском городке, где обосновались две банды бутлегеров — ирландца Дойла и итальянца Строззи, ведущие между собой бесконечные кровавые разборки.
    Примыкая по очереди то к одной, то к другой банде, разряжая свой пистолет то в одних гангстеров, то в других, Смит на самом деле преследует свои собственные цели…

    Снималось в:США
    Киностудия:New Line Cinema, Lone Wolf, Eclipse Catering
    Время просмотра:01:41:03
    Перевод текста:Авторский (одноголосый) В.Горчаков
    Файл
    Кодек для видео:XviD
    Качество фильма:HDRip
    Информация о видео:640 x272 , 23.976 fps, 893 kbps
    Информация о звуке:48 kHz, MP3, 2 ch, 128 kbps
    MI
    Общее
    Полное имя : Geroy.Odinochka.1996.HDRip.avi
    Формат : AVI
    Формат/Информация : Audio Video Interleave
    Размер файла : 744 Мбайт
    Продолжительность : 1 ч. 41 м.
    Общий поток : 1030 Кбит/сек
    Программа кодирования : VirtualDubMod 1.5.10.3 | www.virtualdub-fr.org || (build 2550/release)
    Библиотека кодирования : VirtualDubMod build 2550/release
    Видео
    Идентификатор : 0
    Формат : MPEG-4 Visual
    Профиль формата : Advanced Simple@L5
    Параметр BVOP формата : 2
    Параметр QPel формата : Нет
    Параметр GMC формата : Без точки перехода
    Параметр матрицы формата : Выборочная
    Идентификатор кодека : XVID
    Идентификатор кодека/Подсказка : XviD
    Продолжительность : 1 ч. 41 м.
    Битрейт : 893 Кбит/сек
    Ширина : 640 пикс.
    Высота : 272 пикс.
    Соотношение сторон : 2,35:1
    Частота кадров : 23,976 кадр/сек
    Цветовое пространство : YUV
    Подвыборка цветности : 4:2:0
    Битовая глубина : 8 бит
    Тип развёртки : Прогрессивная
    Метод сжатия : С потерями
    Бит/(Пиксели*Кадры) : 0.214
    Размер потока : 645 Мбайт (87%)
    Библиотека кодирования : XviD 73
    Аудио
    Идентификатор : 1
    Формат : MPEG Audio
    Версия формата : Version 1
    Профиль формата : Layer 3
    Идентификатор кодека : 55
    Идентификатор кодека/Подсказка : MP3
    Продолжительность : 1 ч. 40 м.
    Вид битрейта : Постоянный
    Битрейт : 128 Кбит/сек
    Канал(ы) : 2 канала(ов)
    Частота : 48,0 КГц
    Метод сжатия : С потерями
    Размер потока : 92,3 Мбайт (12%)
    Выравнивание : Соединение по промежуткам
    Продолжительность промежутка : 42 мс. (1,00 видеокадр)
    Время предзагрузки промежутка : 504 ms
    Библиотека кодирования : LAME3.99r
    Залил: leon-masl
    Размер скачиваемого торрента: 744.34 MB (780498944 Bytes)


    Герой-одиночка/Last man standing (1996) HDRip от Leon-masl | A скачать через торрент бесплатно
    загрузка...
    Рейтинг →
     (голосов: 1, оценка 5/5, голосовать можно 1 раз )

    Другие торренты по теме:

  • Герой - одиночка / Last Man Standing (1996) BDRip 1080p торрент скачать бесплатно
  • Герой-одиночка / Last Man Standing (1996) BDRip 1080p от BT-Club скачать через торрент бесплатно


    • Комментарии (0):

      Информация

      Информация

        Посетители, находящиеся в группе Гости, не могут оставлять комментарии в данной новости.

        ↓ Меню



        ↓ Опрос

        А Вы добавили сайт в закладки?
        Да
        Не


        Top 10 за неделю (Фильмы)