.
Авторизация | Регистрация
Хочешь лучшие торренты? Добавь свой email!
Добавить
» » Хорошие соседи / Good Neighbours (2010) DVB от MediaClub | P торрент скачать бесплатно




    Хорошие соседи / Good Neighbours (2010) DVB от MediaClub | P торрент скачать бесплатно

    Опубликовал: Админ | Дата: 27-02-2015, 11:10 | Просмотров: 176


    Детально о кино
    Русское название:Хорошие соседи
    Русское название в мировом прокате:Good Neighbours
    Создали в:2010
    Категория жанра:Триллер, криминал
    Главный режиссер:Джейкоб Тирни
    Актеры:Джей Барушель Скотт Спидман Эмили Хэмпшир Ксавье Долан Каньехтио Хорн Гэри Фармер Джейкоб Тирни Анна-Мари Кадьо Пэт Кили Натали Джирард
    Сюжет фильма:
    Действие фильма разворачивается в 1995 году в Канаде, во время второго референдума об отделении провинции Квебек. В разгар зимы серийный убийца вышел на охоту в небольшой окрестности Монреаля Нотр-Дам-де-Грас. Жильцы старого дома должны выяснить, кому они могут доверять и кто же убийца.

    Снималось в:Канада
    Киностудия:Park Ex Pictures
    Время просмотра:01:34:42
    Перевод текста:Профессиональный многоголосый
    Файл
    Качество фильма:DVB
    Информация о видео:MPEG-2, 2367 Кбит/с, 720x576@1024x576
    Информация о звуке:Русский (АС3, 6 ch, 384 Кбит/с)/(MP2, 2 ch, 192 Кбит/с)
    Семпл
    Скриншоты для ознакомления

    MI
    Общее
    Идентификатор : 1 (0x1)
    Полное имя : Xoroshie.sosedi.2010.DVB.MediaClub.ts
    Формат : MPEG-TS
    Размер файла : 2,05 Гбайт
    Продолжительность : 1 ч. 34 м.
    Режим общего битрейта : Переменный
    Общий поток : 3102 Кбит/сек
    Видео
    Идентификатор : 322 (0x142)
    Идентификатор меню : 10103 (0x2777)
    Формат : MPEG Video
    Версия формата : Version 2
    Профиль формата : Main@Main
    Параметр BVOP формата : Да
    Параметр матрицы формата : Выборочная
    Параметр GOP формата : Variable
    Идентификатор кодека : 2
    Продолжительность : 1 ч. 34 м.
    Вид битрейта : Переменный
    Битрейт : 2367 Кбит/сек
    Максимальный битрейт : 15,0 Мбит/сек
    Ширина : 720 пикселей
    Высота : 576 пикселей
    Соотношение сторон : 16:9
    Частота кадров : 25,000 кадров/сек
    Стандарт вещания : PAL
    Цветовое пространство : YUV
    Субдискретизация насыщенности : 4:2:0
    Битовая глубина : 8 бит
    Тип развёртки : Чересстрочная
    Порядок развёртки : Верхнее поле первое
    Метод сжатия : С потерями
    Бит/(Пиксели*Кадры) : 0.228
    Размер потока : 1,57 Гбайт (76%)
    Аудио #1
    Идентификатор : 405 (0x195)
    Идентификатор меню : 10103 (0x2777)
    Формат : MPEG Audio
    Версия формата : Version 1
    Профиль формата : Layer 2
    Идентификатор кодека : 4
    Продолжительность : 1 ч. 34 м.
    Вид битрейта : Постоянный
    Битрейт : 192 Кбит/сек
    Каналы : 2 канала
    Частота : 48,0 КГц
    Метод сжатия : С потерями
    Задержка видео : -800 мс.
    Размер потока : 130 Мбайт (6%)
    Язык : Russian
    Язык, дополнительно : Clean effects
    Аудио #2
    Идентификатор : 435 (0x1B3)
    Идентификатор меню : 10103 (0x2777)
    Формат : AC-3
    Формат/Информация : Audio Coding 3
    Расширение режима : CM (complete main)
    Параметр Endianness формата : Big
    Идентификатор кодека : 6
    Продолжительность : 1 ч. 34 м.
    Вид битрейта : Постоянный
    Битрейт : 384 Кбит/сек
    Каналы : 6 каналов
    Расположение каналов : Front: L C R, Side: L R, LFE
    Частота : 48,0 КГц
    Битовая глубина : 16 бит
    Метод сжатия : С потерями
    Задержка видео : -720 мс.
    Размер потока : 260 Мбайт (12%)
    Язык : Russian
    Меню
    Идентификатор : 102 (0x66)
    Идентификатор меню : 10103 (0x2777)
    Продолжительность : 1 ч. 34 м.
    Список : 322 (0x142) (MPEG Video)/405 (0x195) (MPEG Audio, Russian)/435 (0x1B3) (AC-3, Russian)
    Язык :/Russian/Russian

    Релиз подготовил:
    Залил: poja
    Размер скачиваемого торрента: 2.05 GB (2203818532 Bytes)

    Хорошие соседи/Good Neighbours (2010) DVB от MediaClub | P торрент скачать бесплатно
    загрузка...
    Рейтинг →
     (голосов: 1, оценка 5/5, голосовать можно 1 раз )

    Другие торренты по теме:

  • Хорошие мужчины, хорошие женщины / Hao nan hao nu / Good Men, Good Women (1995) DVDRip | Sub скачать через торрент бесплатно
  • Сборник - Просто Хорошие песни (2013) MP3
  • Наталья Ветлицкая - Хорошие Песни (1997-2011) МР3
  • Хорошие дети не плачут / Achtste Groepers Huilen Niet (2012) HDRip | P2
  • Хорошие поступки / Good Deeds (2012) DVDRip | Лицензия
  • Алена Апина - Хорошие песни - 2 (1998 - 2013) МР 3 скачать через торрент бесплатно
  • VA - Просто Хорошие песни 2 (2013) MP3
  • Все хорошие дети / All good children (2010) DVDRip скачать через торрент бесплатно


    • Комментарии (0):

      Информация

      Информация

        Посетители, находящиеся в группе Гости, не могут оставлять комментарии в данной новости.

        ↓ Меню



        ↓ Опрос

        А Вы добавили сайт в закладки?
        Да
        Не


        Top 10 за месяц (Фильмы)