.
Авторизация | Регистрация
Хочешь лучшие торренты? Добавь свой email!
Добавить




42 / 42 (2013) BDRip-AVC | iPad | P торрент скачать бесплатно

Опубликовал: Админ | Дата: 27-02-2015, 11:10 | Просмотров: 176


42/42 (2013) BDRip-AVC | iPad | P
In a game divided by color, he made us see greatness.
Русское название:42
Русское название в мировом прокате:42
Создали в:2013
Категория жанра:драма, биография, спорт
Главный режиссер:Брайан Хелгеленд
Актеры:Харрисон Форд, Чэдвик Боузман, Николь Бихери, Кристофер Мелони, Райан Мерриман, Лукас Блэк, Андре Холлэнд, Алан Тьюдик, Хамиш Линклэйтер, Т.Р. Найт
Сюжет фильма:
Фильм посвящен тому, как Брэнч Рики и Джеки Робинсон уничтожили сегрегацию в бейсболе в 1947 году.

Снималось в:США
Киностудия:Antidote Films (I)
Время просмотра:01:29:59
Перевод текста:Русский профессиональный многоголосый закадровый
Файл
Кодек для видео:H.264
Качество фильма:BDRip 576p
Информация о видео:1024x426 (2.40:1) at 23.976 fps, AVC at 2400 kbps
Информация о звуке:
1: АAС 2.0 160 kbps - Русский профессиональный многоголосый закадровый
2: АAС 2.0 126 kbps - Английский
Субтитры:Отсутствует
MediaInfo

General
Complete name : I:modout42.2013.576p.P.m4v
Format : MPEG-4
Codec ID : M4V
File size : 2.45 GiB
Duration : 2h 8mn
Overall bit rate mode : Variable
Overall bit rate : 2 732 Kbps
Movie name : 42
Performer : Brian Helgeland
Genre : Drama
ContentType : Short Film
Deion : Фильм посвящен тому, как Брэнч Рики и Джеки Робинсон уничтожили сегрегацию в бейсболе в 1947 году.
Recorded date : UTC 2013-04-12 07:00:00
Encoded date : UTC 2014-08-03 13:38:03
Tagged date : UTC 2014-08-03 13:52:18
Copyright : © 2013 Warner Bros. Entertainment Inc. and Legendary Pictures Funding, LLC
Cover : Yes
Comment : In a game divided by color, he made us see greatness.
ContentRating : ru-movie|12+|200|
Title/Sort : 42
LongDeion : Фильм посвящен тому, как Брэнч Рики и Джеки Робинсон уничтожили сегрегацию в бейсболе в 1947 году.
AppleStoreCatalogID : 647495546
Vendor : Apple:vendor_id:2013-102260
Video
ID : 1
Format : AVC
Format/Info : Advanced Video Codec
Format profile : High@L4.1
Format settings, CABAC : Yes
Format settings, ReFrames : 9 frames
Codec ID : avc1
Codec ID/Info : Advanced Video Coding
Duration : 2h 8mn
Bit rate : 2 420 Kbps
Maximum bit rate : 14.4 Mbps
Width : 1 024 pixels
Height : 426 pixels
Display aspect ratio : 2.40:1
Frame rate mode : Constant
Frame rate : 23.976 fps
Color space : YUV
Chroma subsampling : 4:2:0
Bit depth : 8 bits
Scan type : Progressive
Bits/(Pixel*Frame) : 0.231
Stream size : 2.17 GiB (89%)
Title : 42.2013
Language : English
Encoded date : UTC 2014-08-03 13:38:03
Tagged date : UTC 2014-08-03 13:38:27
Matrix coefficients : BT.709
Audio #1
ID : 2
Format : AAC
Format/Info : Advanced Audio Codec
Format profile : LC
Codec ID : 40
Duration : 2h 8mn
Bit rate mode : Variable
Bit rate : 168 Kbps
Maximum bit rate : 218 Kbps
Channel(s) : 2 channels
Channel positions : Front: L R
Sampling rate : 48.0 KHz
Compression mode : Lossy
Stream size : 155 MiB (6%)
Title : MVO
Language : Russian
Encoded date : UTC 2014-08-03 13:38:22
Tagged date : UTC 2014-08-03 13:38:27
Audio #2
ID : 3
Format : AAC
Format/Info : Advanced Audio Codec
Format profile : LC
Codec ID : 40
Duration : 2h 8mn
Bit rate mode : Variable
Bit rate : 126 Kbps
Maximum bit rate : 191 Kbps
Channel(s) : 2 channels
Channel positions : Front: L R
Sampling rate : 48.0 KHz
Compression mode : Lossy
Stream size : 116 MiB (5%)
Language : English
Encoded date : UTC 2014-08-03 13:35:44
Tagged date : UTC 2014-08-03 13:38:27
Menu
ID : 4
Codec ID : text
Duration : 2h 8mn
Encoded date : UTC 2014-08-03 13:38:55
Tagged date : UTC 2014-08-03 13:38:55
Bit rate mode : CBR
x264

x264 info: frame I:1498 Avg QP:12.81 size:104945
x264 info: frame P:42836 Avg QP:17.14 size: 29722
x264 info: frame B:140155 Avg QP:21.16 size: 6404
x264 info: consecutive B-frames: 2.6% 2.7% 7.8% 31.4% 21.2% 25.7% 3.6% 2.5% 0.7% 0.5% 0.3% 0.2% 0.7%
x264 info: mb I I16..4: 11.6% 45.6% 42.8%
x264 info: mb P I16..4: 0.5% 5.8% 2.2% P16..4: 24.9% 29.5% 18.4% 7.9% 2.4% skip: 8.5%
x264 info: mb B I16..4: 0.0% 0.6% 0.2% B16..8: 28.9% 17.7% 3.5% direct: 5.1% skip:44.0% L0:36.4% L1:41.4% BI:22.2%
x264 info: 8x8 transform intra:63.8% inter:34.1%
x264 info: coded y,uvDC,uvAC intra: 94.4% 80.4% 61.1% inter: 20.7% 11.7% 6.6%
x264 info: i16 v,h,dc,p: 11% 14% 24% 52%
x264 info: i8 v,h,dc,ddl,ddr,vr,hd,vl,hu: 12% 13% 8% 8% 11% 12% 11% 12% 13%
x264 info: i4 v,h,dc,ddl,ddr,vr,hd,vl,hu: 13% 13% 5% 8% 13% 13% 12% 11% 12%
x264 info: i8c dc,h,v,p: 36% 29% 19% 16%
x264 info: Weighted P-Frames: Y:3.8% UV:1.5%
x264 info: ref P L0: 57.5% 12.6% 12.9% 5.5% 3.7% 2.9% 2.1% 1.3% 1.3% 0.2% 0.0%
x264 info: ref B L0: 86.7% 6.5% 3.1% 1.3% 0.8% 0.7% 0.6% 0.2%
x264 info: ref B L1: 94.8% 5.2%
x264 info: kb/s:2420.34
iTunes tags

Sort Name: 42
XID: Apple:vendor_id:2013-102260
Content ID: 647495546
Copyright: © 2013 Warner Bros. Entertainment Inc. and Legendary Pictures Funding, LLC
ScreenWriters: Брайан Хелгеленд
Producers: Томас Тулл, Джейсон Кларк, Дик Кук
Director: Брайан Хелгеленд
Cast: Chadwick Boseman (Jackie Robinson), T.R. Knight (Harold Parrott), Harrison Ford (Branch Rickey), Nicole Beharie (Rachel Isum), Christopher Meloni (Leo Durocher), John C. McGinley (Red Barber), Ryan Merriman (Dixie Walker), Jud Tylor (Laraine Day), Brett Cullen (Clay Hopper), Brad Beyer (Kirby Higbe), Lucas Black (Pee Wee Reese), Andre Holland (Wendell Smith), Alan Tudyk (Ben Chapman), Hamish Linklater (Ralph Branca), James Pickens Jr. (Mr. Brock), Gino Anthony Pesi (Joe Garagiola), Kelley Jakle (Alice)
Rating: 12+
Long Deion: Фильм посвящен тому, как Брэнч Рики и Джеки Робинсон уничтожили сегрегацию в бейсболе в 1947 году.
Deion: Фильм посвящен тому, как Брэнч Рики и Джеки Робинсон уничтожили сегрегацию в бейсболе в 1947 году.
Release Date: 2013-04-12T07:00:00Z
Genre: Drama
Artist: Brian Helgeland
Name: 42
Comments: Реальная история легенды спорта
Screenshots



Залил: gekka
Размер скачиваемого торрента: 2.45 GB (2628286493 Bytes)

42/42 (2013) BDRip-AVC | iPad | P торрент скачать бесплатно
загрузка...
Рейтинг →
 (голосов: 1, оценка 5/5, голосовать можно 1 раз )

Другие торренты по теме:

  • Беспорядки на 42-ой улице / Riot on 42-nd Street (1987) DVDRip от SergV | Р1
  • Лето 42-го / Summer of 42 (1971) DVDRip-AVC от Temperest
  • 42 / 42 (2013) BDRip от ELmusic | Sub
  • 42 / 42 (2013) BDRip 1080p | P
  • Сборник радиоспектаклей №42 (1959 - 2008) MP3
  • Монеты и Банкноты № 01-42 (2012) PDF
  • VSO ConvertXtoDVD 5.0.0.42 Final (2013) РС | RePack by elchupacabra
  • Half-Life 2 Deathmatch v1.0.0.42 Автообновление Многоязычный (No-Steam) (2013) PC


    • Комментарии (0):

      Информация

      Информация

        Посетители, находящиеся в группе Гости, не могут оставлять комментарии в данной новости.

        ↓ Меню



        ↓ Опрос

        А Вы добавили сайт в закладки?
        Да
        Не


        Top 10 за месяц (Фильмы)