.
Авторизация | Регистрация
Хочешь лучшие торренты? Добавь свой email!
Добавить
» » Итальянский жеребец / Жеребец на вечеринке у Китти / Italian Stallion / The Party at Kitty (1970) DVDRip-AVC | P2 торрент скачать бесплатно




    Итальянский жеребец / Жеребец на вечеринке у Китти / Italian Stallion / The Party at Kitty (1970) DVDRip-AVC | P2 торрент скачать бесплатно

    Опубликовал: Админ | Дата: 27-02-2015, 11:10 | Просмотров: 377


    Детально о кино
    Русское название:Итальянский жеребец/Жеребец на вечеринке у Китти
    Русское название в мировом прокате:Italian Stallion/The Party at Kitty
    Создали в:1970
    Категория жанра:Эротика, драма, комедия
    Главный режиссер:Мортон Льюис
    Актеры:Сильвестр Сталлоне, Лайза Маркс, Джанет Банзе, Джорджетта Сандерс, Билл Барри, Дик Стивенс, Лизетт Хайес, Андерсон, Даб Дэвид Моррис, Колин Эванс
    Сюжет фильма:Первый фильм в котором снялся 24-х летний Сильвестра Сталоне! И ему до сих пор стыдно, что он это сделал.
    Китти и Стад любовники. Они наслаждаются постоянным сексом, который включает фелляции и легкое садомазо. В частности, Стад бьет Китти ремнем. Три женщины приходят на их вечеринку, и Стад обслуживает их по очереди.

    Снималось в:США
    Киностудия:Stallion Releasing Inc.
    Время просмотра:01:06:31
    Перевод текста:Профессиональный (двухголосый)
    Файл
    Кодек для видео:h.264 (MKV)
    Качество фильма:DVDRip-AVC
    Информация о видео:MPEG4 AVC, 720 x 400, ~3363 kbps
    Информация о звуке:AC-3, 2 ch, 192 kbps
    Субтитры:нет
    Семпл
    Скриншоты для ознакомления
    MI
    Общее
    Уникальный идентификатор : 223006871487416151430588490813273562978 (0xA7C58FA8316F36CC82813DEF09185F62)
    Полное имя : H: Italian Stallion The Party at Kitty_1970_DVDRip-AVC.mkv
    Формат : Matroska
    Версия формата : Version 4/Version 2
    Размер файла : 1,69 Гбайт
    Продолжительность : 1 ч. 6 м.
    Общий поток : 3627 Кбит/сек
    Дата кодирования : UTC 2014-08-05 14:26:41
    Программа кодирования : mkvmerge v7.0.0 (;Where We Going;) 64bit built on Jun 9 2014 15:16:27
    Библиотека кодирования : libebml v1.3.0 + libmatroska v1.4.1
    DURATION : 01:06:31.280000000
    NUMBER_OF_FRAMES : 99782
    NUMBER_OF_BYTES : 1712924628
    _STATISTICS_WRITING_APP : mkvmerge v7.0.0 (;Where We Going;) 64bit built on Jun 9 2014 15:16:27
    _STATISTICS_WRITING_DATE_UTC : 2014-08-05 14:26:41
    _STATISTICS_TAGS : BPS DURATION NUMBER_OF_FRAMES NUMBER_OF_BYTES
    Видео
    Идентификатор : 1
    Формат : AVC
    Формат/Информация : Advanced Video Codec
    Профиль формата : High@L4.1
    Параметр CABAC формата : Да
    Параметр ReFrames формата : 8 кадров
    Идентификатор кодека : V_MPEG4/ISO/AVC
    Продолжительность : 1 ч. 6 м.
    Битрейт : 3363 Кбит/сек
    Ширина : 720 пикселей
    Высота : 400 пикселей
    Соотношение сторон : 16:9
    Режим частоты кадров : Постоянный
    Частота кадров : 25,000 кадров/сек
    Цветовое пространство : YUV
    Субдискретизация насыщенности : 4:2:0
    Битовая глубина : 8 бит
    Тип развёртки : Прогрессивная
    Бит/(Пиксели*Кадры) : 0.467
    Размер потока : 1,56 Гбайт (93%)
    Язык : English
    Default : Да
    Forced : Нет
    Аудио
    Идентификатор : 2
    Формат : AC-3
    Формат/Информация : Audio Coding 3
    Расширение режима : CM (complete main)
    Параметр Endianness формата : Big
    Идентификатор кодека : A_AC3
    Продолжительность : 1 ч. 6 м.
    Вид битрейта : Постоянный
    Битрейт : 192 Кбит/сек
    Каналы : 2 канала
    Расположение каналов : Front: L R
    Частота : 48,0 КГц
    Битовая глубина : 16 бит
    Метод сжатия : С потерями
    Размер потока : 91,4 Мбайт (5%)
    Язык : Russian
    Default : Да
    Forced : Нет
    DURATION : 01:06:31.680000000
    NUMBER_OF_FRAMES : 124740
    NUMBER_OF_BYTES : 95800320
    _STATISTICS_WRITING_APP : mkvmerge v7.0.0 (;Where We Going;) 64bit built on Jun 9 2014 15:16:27
    _STATISTICS_WRITING_DATE_UTC : 2014-08-05 14:26:41
    _STATISTICS_TAGS : BPS DURATION NUMBER_OF_FRAMES NUMBER_OF_BYTES

    Размер скачиваемого торрента: 1.69 GB (1809647223 Bytes)

    Итальянский жеребец/Жеребец на вечеринке у Китти/Italian Stallion/The Party at Kitty (1970) DVDRip-AVC | P2 торрент скачать бесплатно
    загрузка...
    Рейтинг →
     (голосов: 1, оценка 5/5, голосовать можно 1 раз )

    Другие торренты по теме:

  • Итальянский жеребец / Вечеринка у Китти и Стада / The Party at Kitty and Studs (1970) DVDRip | P2 скачать через торрент бесплатно


    • Комментарии (0):

      Информация

      Информация

        Посетители, находящиеся в группе Гости, не могут оставлять комментарии в данной новости.

        ↓ Меню



        ↓ Опрос

        А Вы добавили сайт в закладки?
        Да
        Не


        Top 10 за месяц (Фильмы)