.
Авторизация | Регистрация
» » НЕнормальное явление / Supernatural Activity (2012) HDRip-AVC | P торрент скачать бесплатно




    НЕнормальное явление / Supernatural Activity (2012) HDRip-AVC | P торрент скачать бесплатно

    Опубликовал: Админ | Дата: 27-02-2015, 11:10 | Просмотров: 258


    Детально о кино
    Русское название:НЕнормальное явление
    Русское название в мировом прокате:Supernatural Activity
    Создали в:2012
    Категория жанра:комедия
    Главный режиссер:Дерек Ли Никсон
    Актеры:Эндрю Подза, Лидди Бисанз, Джои Оглсби, Донни Боаз, Девин Бонне, Филип Марлатт, Тим Оглтри, Лизабет Уотерс, Конли Мишель Уэнер, Курт Уэнер
    Сюжет фильма:
    Самый почитаемый иллюзионист в мире, вооруженный его командой оксюморонов, начинает самое авантюрное паранормальное расследование всех времен. Терроризируемая на каждом шагу необъяснимостью таинственных парадоксов, эта охота на ведьм и призраков являет собой дико смешные кадры.

    Снималось в:США
    Киностудия:Ari Star Entertainment
    Время просмотра:01:36:21
    Перевод текста:Профессиональный многоголосый (закадровый)
    Файл
    Кодек для видео:h.264 (MKV)
    Качество фильма:HDRip-AVC
    Информация о видео:AVC, 1024 x 576, ~2121 kbps
    Информация о звуке:Русский: АС3, 2 ch, 192 kbps/Aнглийский: АС3, 6 ch, 448 kbps
    Субтитры:Итальянский
    Семпл
    Скриншоты для ознакомления
    MI
    Общее
    Уникальный идентификатор : 233858849627985082017398940597012628444 (0xAFEF937CFBCF169CA8139C1A594F83DC)
    Полное имя : H: Supernatural.Activity.2012.HDRip-AVC.mkv
    Формат : Matroska
    Версия формата : Version 4/Version 2
    Размер файла : 1,82 Гбайт
    Продолжительность : 1 ч. 32 м.
    Общий поток : 2817 Кбит/сек
    Название фильма : stellalpina-EaGLeS
    Дата кодирования : UTC 2014-08-05 10:07:02
    Программа кодирования : mkvmerge v7.0.0 (;Where We Going;) 64bit built on Jun 9 2014 15:16:27
    Библиотека кодирования : libebml v1.3.0 + libmatroska v1.4.1
    _STATISTICS_WRITING_APP : mkvmerge v7.0.0 (;Where We Going;) 64bit built on Jun 9 2014 15:16:27
    _STATISTICS_WRITING_DATE_UTC : 2014-08-05 10:07:02
    _STATISTICS_TAGS : BPS DURATION NUMBER_OF_FRAMES NUMBER_OF_BYTES
    DURATION : 01:32:37.600000000
    NUMBER_OF_FRAMES : 173675
    NUMBER_OF_BYTES : 311225600
    Видео
    Идентификатор : 1
    Формат : AVC
    Формат/Информация : Advanced Video Codec
    Профиль формата : Main@L4.1
    Параметр CABAC формата : Да
    Параметр ReFrames формата : 4 кадра
    Идентификатор кодека : V_MPEG4/ISO/AVC
    Продолжительность : 1 ч. 32 м.
    Битрейт : 2121 Кбит/сек
    Ширина : 1024 пикселя
    Высота : 576 пикселей
    Соотношение сторон : 16:9
    Режим частоты кадров : Постоянный
    Частота кадров : 23,976 кадра/сек
    Цветовое пространство : YUV
    Субдискретизация насыщенности : 4:2:0
    Битовая глубина : 8 бит
    Тип развёртки : Прогрессивная
    Бит/(Пиксели*Кадры) : 0.150
    Размер потока : 1,37 Гбайт (75%)
    Default : Да
    Forced : Нет
    Аудио #1
    Идентификатор : 2
    Формат : AC-3
    Формат/Информация : Audio Coding 3
    Расширение режима : CM (complete main)
    Параметр Endianness формата : Big
    Идентификатор кодека : A_AC3
    Продолжительность : 1 ч. 32 м.
    Вид битрейта : Постоянный
    Битрейт : 192 Кбит/сек
    Каналы : 2 канала
    Расположение каналов : Front: L R
    Частота : 48,0 КГц
    Битовая глубина : 16 бит
    Метод сжатия : С потерями
    Размер потока : 127 Мбайт (7%)
    Язык : Russian
    Default : Да
    Forced : Да
    Аудио #2
    Идентификатор : 3
    Формат : AC-3
    Формат/Информация : Audio Coding 3
    Расширение режима : CM (complete main)
    Параметр Endianness формата : Big
    Идентификатор кодека : A_AC3
    Продолжительность : 1 ч. 32 м.
    Вид битрейта : Постоянный
    Битрейт : 448 Кбит/сек
    Каналы : 6 каналов
    Расположение каналов : Front: L C R, Side: L R, LFE
    Частота : 48,0 КГц
    Битовая глубина : 16 бит
    Метод сжатия : С потерями
    Размер потока : 297 Мбайт (16%)
    Язык : English
    Default : Нет
    Forced : Нет
    Текст #1
    Идентификатор : 4
    Формат : UTF-8
    Идентификатор кодека : S_TEXT/UTF8
    Идентификатор кодека/Информация : UTF-8 Plain Text
    Заголовок : Italiano FORCED
    Язык : Italian
    Default : Нет
    Forced : Нет
    Текст #2
    Идентификатор : 5
    Формат : UTF-8
    Идентификатор кодека : S_TEXT/UTF8
    Идентификатор кодека/Информация : UTF-8 Plain Text
    Заголовок : Italiano
    Язык : Italian
    Default : Нет
    Forced : Нет

    Размер скачиваемого торрента: 1.82 GB (1956992356 Bytes)

    НЕнормальное явление/Supernatural Activity (2012) HDRip-AVC | P торрент скачать бесплатно
    загрузка...
    Рейтинг →
     (голосов: 1, оценка 5/5, голосовать можно 1 раз )

    Другие торренты по теме:



      Комментарии (0):

      Информация

      Информация

        Посетители, находящиеся в группе Гости, не могут оставлять комментарии в данной новости.

        ↓ Меню



        ↓ Опрос

        А Вы добавили сайт в закладки?
        Да
        Не


        Top 10 за неделю (Фильмы)