.
Авторизация | Регистрация
Хочешь лучшие торренты? Добавь свой email!
Добавить
» » Коттедж / The Cottage (2012) DVB от MediaClub | P скачать через торрент бесплатно




    Коттедж / The Cottage (2012) DVB от MediaClub | P скачать через торрент бесплатно

    Опубликовал: Админ | Дата: 27-02-2015, 11:10 | Просмотров: 172


    Детально о кино
    Русское название:Коттедж
    Русское название в мировом прокате:The Cottage
    Создали в:2012
    Категория жанра:Триллер
    Главный режиссер:Кристофер Джеймс
    Актеры:Дэвид Аркетт, Кристен Далтон, Виктор Браун, Морисса О’Мара, Алана О’Мара, Франни Хокинг, Кенни Бауманн, Лоррэйн Николсон, Беллами Янг, Роум Шаданлу
    Сюжет фильма:
    Счастливая молодая семья с двумя маленькими дочками. Живут в чудесном доме, в саду которого находится гостевой домик. Все идет прекрасно, пока у них не возникают проблемы с деньгами. Они решают сдавать гостевой домик. Жилец находится быстро — им оказывается молодой, очаровательный новеллист. Но с его приходом в дом начинается кошмар…

    Снималось в:США
    Киностудия:Velvet Spoon Productions, Visualeyes Productions
    Время просмотра:01:23:50
    Перевод текста:Профессиональный многоголосый
    Файл
    Качество фильма:DVB
    Информация о видео:MPEG-2, 2357 Кбит/с, 720x576@1024x576
    Информация о звуке:Русский (АС3, 6 ch, 384 Кбит/с)/(MP2, 2 ch, 192 Кбит/с)
    Семпл
    Скриншоты для ознакомления

    MI
    Общее
    Идентификатор : 1 (0x1)
    Полное имя : Kottedzh.2012.DVB.MediaClub.ts
    Формат : MPEG-TS
    Размер файла : 1,81 Гбайт
    Продолжительность : 1 ч. 23 м.
    Режим общего битрейта : Переменный
    Общий поток : 3092 Кбит/сек
    Видео
    Идентификатор : 322 (0x142)
    Идентификатор меню : 10103 (0x2777)
    Формат : MPEG Video
    Версия формата : Version 2
    Профиль формата : Main@Main
    Параметр BVOP формата : Да
    Параметр матрицы формата : Выборочная
    Параметр GOP формата : Variable
    Идентификатор кодека : 2
    Продолжительность : 1 ч. 23 м.
    Вид битрейта : Переменный
    Битрейт : 2357 Кбит/сек
    Максимальный битрейт : 15,0 Мбит/сек
    Ширина : 720 пикселей
    Высота : 576 пикселей
    Соотношение сторон : 16:9
    Частота кадров : 25,000 кадров/сек
    Стандарт вещания : PAL
    Цветовое пространство : YUV
    Субдискретизация насыщенности : 4:2:0
    Битовая глубина : 8 бит
    Тип развёртки : Чересстрочная
    Порядок развёртки : Верхнее поле первое
    Метод сжатия : С потерями
    Бит/(Пиксели*Кадры) : 0.227
    Размер потока : 1,38 Гбайт (76%)
    Аудио #1
    Идентификатор : 405 (0x195)
    Идентификатор меню : 10103 (0x2777)
    Формат : MPEG Audio
    Версия формата : Version 1
    Профиль формата : Layer 2
    Идентификатор кодека : 4
    Продолжительность : 1 ч. 23 м.
    Вид битрейта : Постоянный
    Битрейт : 192 Кбит/сек
    Каналы : 2 канала
    Частота : 48,0 КГц
    Метод сжатия : С потерями
    Задержка видео : -782 мс.
    Размер потока : 115 Мбайт (6%)
    Язык : Russian
    Язык, дополнительно : Clean effects
    Аудио #2
    Идентификатор : 435 (0x1B3)
    Идентификатор меню : 10103 (0x2777)
    Формат : AC-3
    Формат/Информация : Audio Coding 3
    Расширение режима : CM (complete main)
    Параметр Endianness формата : Big
    Идентификатор кодека : 6
    Продолжительность : 1 ч. 23 м.
    Вид битрейта : Постоянный
    Битрейт : 384 Кбит/сек
    Каналы : 6 каналов
    Расположение каналов : Front: L C R, Side: L R, LFE
    Частота : 48,0 КГц
    Битовая глубина : 16 бит
    Метод сжатия : С потерями
    Задержка видео : -686 мс.
    Размер потока : 230 Мбайт (12%)
    Язык : Russian
    Меню
    Идентификатор : 102 (0x66)
    Идентификатор меню : 10103 (0x2777)
    Продолжительность : 1 ч. 23 м.
    Список : 322 (0x142) (MPEG Video)/405 (0x195) (MPEG Audio, Russian)/435 (0x1B3) (AC-3, Russian)
    Язык :/Russian/Russian

    Релиз подготовил:
    Залил: poja
    Размер скачиваемого торрента: 1.81 GB (1944314988 Bytes)

    Коттедж/The Cottage (2012) DVB от MediaClub | P скачать через торрент бесплатно
    загрузка...
    Рейтинг →
     (голосов: 1, оценка 5/5, голосовать можно 1 раз )

    Другие торренты по теме:

  • Коттедж / The Cottage (2012) WEB-DL 720p от CINEMANIA | P скачать через торрент бесплатно
  • Рождественский коттедж / Christmas Cottage (2008) BDRip 720p by msltel | P, P2, 2 x A, 2 x P1


    • Комментарии (0):

      Информация

      Информация

        Посетители, находящиеся в группе Гости, не могут оставлять комментарии в данной новости.

        ↓ Меню



        ↓ Опрос

        А Вы добавили сайт в закладки?
        Да
        Не


        Top 10 за месяц (Фильмы)