.
Авторизация | Регистрация
» » 2 спальни, 1 ванная / 2 Bedroom 1 Bath (2014) SATRip от MediaClub | P скачать через торрент бесплатно




    2 спальни, 1 ванная / 2 Bedroom 1 Bath (2014) SATRip от MediaClub | P скачать через торрент бесплатно

    Опубликовал: Админ | Дата: 27-02-2015, 11:10 | Просмотров: 162


    Детально о кино
    Русское название:2 спальни, 1 ванная
    Русское название в мировом прокате:2 Bedroom 1 Bath
    Создали в:2014
    Категория жанра:Ужасы, триллер
    Главный режиссер:Стэнли Юнг
    Актеры:Мишель Хикс, Эндрю В. Уолкер, Эрик Робертс, Ди Уоллес-Стоун, Костас Мэндилор, Шошана Буш, Шелби Янг, Эйден Флауэрс, Джек Доннер, Руби Лу Смит
    Сюжет фильма:
    Молодая пара, Кевин и Рейчел, переезжают в дом, который им видится идеальным для создания новой семьи. Вскоре выясняется, что Рейчел беременна и, казалось бы, счастью супругам нет предела, но с приятной новостью приходят и загадочные, ужасающие события. Кевину начинают сниться кошмары, которые не перестают его преследовать даже наяву, а Рейчел не дает покоя призрак в красном платье. Чем больше некогда счастливая пара пытается распутать причины происходящего, тем больше они понимают, что все события сосредоточены вокруг рождения их будущего ребенка.

    Снималось в:США
    Киностудия:Al Bravo Films, Chemical mind studios
    Время просмотра:01:26:50
    Перевод текста:Профессиональный многоголосый
    Файл
    Кодек для видео:XviD
    Качество фильма:SATRip
    Информация о видео:1853 Кбит/с, 720x384, 25.000 кадр/с
    Информация о звуке:Русский (АС3, 6 ch, 384 Кбит/с)
    Семпл
    Скриншоты для ознакомления

    MI
    Общее
    Полное имя : 2.spalni.1.vanna.2014.SATRip.MediaClub.avi
    Формат : AVI
    Формат/Информация : Audio Video Interleave
    Размер файла : 1,36 Гбайт
    Продолжительность : 1 ч. 26 м.
    Общий поток : 2246 Кбит/сек
    Название фильма : MediaClub
    Программа кодирования : VirtualDubMod 1.5.10.2 (build 2540/release)
    Библиотека кодирования : VirtualDubMod build 2540/release
    Видео
    Идентификатор : 0
    Формат : MPEG-4 Visual
    Профиль формата : Advanced Simple@L5
    Параметр BVOP формата : 2
    Параметр QPel формата : Нет
    Параметр GMC формата : Без точки перехода
    Параметр матрицы формата : Default (MPEG)
    Идентификатор кодека : XVID
    Идентификатор кодека/Подсказка : XviD
    Продолжительность : 1 ч. 26 м.
    Битрейт : 1853 Кбит/сек
    Ширина : 720 пикселей
    Высота : 384 пикселя
    Соотношение сторон : 1,85:1
    Частота кадров : 25,000 кадров/сек
    Цветовое пространство : YUV
    Субдискретизация насыщенности : 4:2:0
    Битовая глубина : 8 бит
    Тип развёртки : Прогрессивная
    Метод сжатия : С потерями
    Бит/(Пиксели*Кадры) : 0.268
    Размер потока : 1,12 Гбайт (82%)
    Библиотека кодирования : XviD 65
    Аудио
    Идентификатор : 1
    Формат : AC-3
    Формат/Информация : Audio Coding 3
    Расширение режима : CM (complete main)
    Параметр Endianness формата : Big
    Идентификатор кодека : 2000
    Продолжительность : 1 ч. 26 м.
    Вид битрейта : Постоянный
    Битрейт : 384 Кбит/сек
    Каналы : 6 каналов
    Расположение каналов : Front: L C R, Side: L R, LFE
    Частота : 48,0 КГц
    Битовая глубина : 16 бит
    Метод сжатия : С потерями
    Размер потока : 238 Мбайт (17%)
    Выравнивание : Разделение по промежуткам
    Продолжительность промежутка : 40 мс. (1,00 видеокадр)
    Время предзагрузки промежутка : 500 мс.

    Релиз подготовил:
    Залил: poja
    Размер скачиваемого торрента: 1.36 GB (1462452224 Bytes)

    2 спальни, 1 ванная/2 Bedroom 1 Bath (2014) SATRip от MediaClub | P скачать через торрент бесплатно
    загрузка...
    Рейтинг →
     (голосов: 1, оценка 5/5, голосовать можно 1 раз )

    Другие торренты по теме:

  • Квартирный вопрос. Звездная спальня (2013) SATRip-AVC торрент скачать бесплатно
  • В спальне / In the Bedroom (2001) WEB-DLRip-AVC | P скачать через торрент бесплатно
  • В спальне / In the Bedroom (2001) HDRip от Scarabey | Р скачать через торрент бесплатно
  • Окно спальни / The Bedroom Window (1986) DVDRip-AVC скачать через торрент бесплатно
  • 2 спальни, 1 ванная / 2 Bedroom 1 Bath торрент скачать бесплатно
  • 2 спальни, 1 ванная / 2 Bedroom 1 Bath (2014) HDTVRip 720p от MediaClub | P торрент скачать бесплатно
  • 2 спальни, 1 ванная / 2 Bedroom 1 Bath (2014) HDTV 1080i от MediaClub | P скачать через торрент бесплатно
  • 2 спальни, 1 ванная / 2 Bedroom 1 Bath (2014) HDTVRip от MediaClub | КПК скачать торрент бесплатно


    • Комментарии (0):

      Информация

      Информация

        Посетители, находящиеся в группе Гости, не могут оставлять комментарии в данной новости.

        ↓ Меню



        ↓ Опрос

        А Вы добавили сайт в закладки?
        Да
        Не


        Top 10 за неделю (Фильмы)