.
Авторизация | Регистрация
» » Человек будущего / O Homem Do Futuro (2011) BDRip by msltel | L1 скачать через торрент бесплатно




    Человек будущего / O Homem Do Futuro (2011) BDRip by msltel | L1 скачать через торрент бесплатно

    Опубликовал: Админ | Дата: 27-02-2015, 11:10 | Просмотров: 140


    Русское название:Человек будущего
    Русское название в мировом прокате:O Homem Do Futuro
    Создали в:2011
    Категория жанра:Комедия, фантастика, фэнтези
    Снималось в:Бразилия, Conspira??o Filmes
    Главный режиссер:Клаудио Торрес
    Актеры:Вагнер Моура, Алинне Мораес, Мария Луиза Мендонича, Габриель Брага Нуньес, Родольфо Боттино, Грегориу Дювивьер, Жан Пьер Нойер, Роджерио Фроес, Ливия Де Буено
    Сюжет фильма:Зэро является выдающимся ученым, но неудачником, потому что 20 лет назад был публично оскорблён и потерял в колледже любовь всей его жизни. Однажды случайный опыт с одним из его изобретений заставляет его путешествовать во времени. После шанса изменить свою жизнь Зэро возвращается к этому полностью изменённому миру.
    Качество фильма:BDRip
    Размер скачиваемого торрента:1.66 ГБ
    Время просмотра:01:45:16
    Информация о видео:XviD, 1575 Кбит/с, 720x304
    Информация о звуке:русский, 48 kHz, AC3, 2 ch, 192 kbps avg, Любительский одноголосый, Slavnus Spacedust по переводу Артура Насырова
    Внешние файлы
    Информация о звуке:португальский, 48 kHz, AC3, 6 ch, 448 kbps avg, Оригинал
    Субтитры:русские
    Субтитры:английские
    Исходник:FREEDONOR (HDtracker)

    MediaInfo
    Общее
    Полное имя : D:VideoChelovek budushego.2011.BDRipChelovek budushego.2011.BDRip.avi
    Формат : AVI
    Формат/Информация : Audio Video Interleave
    Размер файла : 1,31 Гбайт
    Продолжительность : 1 ч. 45 м.
    Общий поток : 1776 Кбит/сек
    Программа кодирования : VirtualDubMod 1.5.10.2 (build 2540/release)
    Библиотека кодирования : VirtualDubMod build 2540/release
    Видео
    Идентификатор : 0
    Формат : MPEG-4 Visual
    Профиль формата : Advanced Simple@L5
    Параметр BVOP формата : 1
    Параметр QPel формата : Нет
    Параметр GMC формата : Без точки перехода
    Параметр матрицы формата : Default (H.263)
    Режим смешивания : Сжатый битовый поток
    Идентификатор кодека : XVID
    Идентификатор кодека/Подсказка : XviD
    Продолжительность : 1 ч. 45 м.
    Битрейт : 1575 Кбит/сек
    Ширина : 720 пикселей
    Высота : 304 пикселя
    Соотношение сторон : 2,35:1
    Частота кадров : 24,000 кадра/сек
    Цветовое пространство : YUV
    Субдискретизация насыщенности : 4:2:0
    Битовая глубина : 8 бит
    Тип развёртки : Прогрессивная
    Метод сжатия : С потерями
    Бит/(Пиксели*Кадры) : 0.300
    Размер потока : 1,16 Гбайт (89%)
    Библиотека кодирования : XviD 1.2.1 (UTC 2008-12-04)
    Аудио
    Идентификатор : 1
    Формат : AC-3
    Формат/Информация : Audio Coding 3
    Расширение режима : CM (complete main)
    Параметр Endianness формата : Big
    Идентификатор кодека : 2000
    Продолжительность : 1 ч. 45 м.
    Вид битрейта : Постоянный
    Битрейт : 192 Кбит/сек
    Каналы : 2 канала
    Расположение каналов : Front: L R
    Частота : 48,0 КГц
    Битовая глубина : 16 бит
    Метод сжатия : С потерями
    Размер потока : 145 Мбайт (11%)
    Выравнивание : Разделение по промежуткам
    Продолжительность промежутка : 42 мс. (1,00 видеокадр)
    Время предзагрузки промежутка : 500 мс.
    Общее
    Полное имя : D:VideoChelovek budushego.2011.BDRipChelovek budushego.2011.eng.srt
    Размер файла : 178 Кбайт
    Общее
    Полное имя : D:VideoChelovek budushego.2011.BDRipChelovek budushego.2011.Original.por.ac3
    Формат : AC-3
    Формат/Информация : Audio Coding 3
    Размер файла : 360 Мбайт
    Продолжительность : 1 ч. 52 м.
    Режим общего битрейта : Постоянный
    Общий поток : 448 Кбит/сек
    Аудио
    Формат : AC-3
    Формат/Информация : Audio Coding 3
    Расширение режима : CM (complete main)
    Параметр Endianness формата : Big
    Продолжительность : 1 ч. 52 м.
    Вид битрейта : Постоянный
    Битрейт : 448 Кбит/сек
    Каналы : 6 каналов
    Расположение каналов : Front: L C R, Side: L R, LFE
    Частота : 48,0 КГц
    Битовая глубина : 16 бит
    Метод сжатия : С потерями
    Размер потока : 360 Мбайт (100%)
    Общее
    Полное имя : D:VideoChelovek budushego.2011.BDRipChelovek budushego.2011.rus.srt
    Размер файла : 173 Кбайт
    Скриншоты для ознакомления


    Залил: msltel
    Размер скачиваемого торрента: 1.66 GB (1780799072 Bytes)

    Человек будущего/O Homem Do Futuro (2011) BDRip by msltel | L1 скачать через торрент бесплатно
    загрузка...
    Рейтинг →
     (голосов: 1, оценка 5/5, голосовать можно 1 раз )

    Другие торренты по теме:



      Комментарии (0):

      Информация

      Информация

        Посетители, находящиеся в группе Гости, не могут оставлять комментарии в данной новости.

        ↓ Меню



        ↓ Опрос

        А Вы добавили сайт в закладки?
        Да
        Не


        Top 10 за неделю (Фильмы)