.
Авторизация | Регистрация
Хочешь лучшие торренты? Добавь свой email!
Добавить
» » Безжалостные люди / Ruthless People (1986) WEB-DLRip от Leon-masl | P, A скачать через торрент бесплатно




    Безжалостные люди / Ruthless People (1986) WEB-DLRip от Leon-masl | P, A скачать через торрент бесплатно

    Опубликовал: Админ | Дата: 27-02-2015, 11:10 | Просмотров: 261


    Детально о кино
    Русское название:Безжалостные люди
    Русское название в мировом прокате:Ruthless People
    Создали в:1986
    Категория жанра:Комедия
    Главный режиссер:Джим Абрахамс, Дэвид Цукер, Джерри Цукер
    Актеры:Дэнни Де Вито/Danny De Vito/,Джадж Райнхолд/Judge Reinhold/,Бетт Мидлер/Bette Midler/,Билл Пуллмэн/Bill Pullman/, Анита Моррис /Anita Morris/, Хелен Слэйтер /Helen Slater/
    Сюжет фильма:
    Самой заветной мечтой Сэма Стоуна было избавиться от своей сварливой женушки. И вот его день настал: жену похитили с целью получить кругленькую сумму. Естественно, что у Сэма даже в мыслях нет расставаться со своими кровными в обмен на любимую супругу. Но он еще не подозревает, что его жена обладает способностью наладить дружеские отношения даже с бандитами. По произведению О. Генри.

    Снималось в:США
    Киностудия:Silver Screen Partners II, Touchstone Pictures
    Время просмотра:01:33:59
    Перевод текста:Профессиональный (многоголосый закадровый), Авторский (одноголосый закадровый) А.Михалев
    Файл
    Кодек для видео:XviD
    Качество фильма:WEB-DLRip
    Информация о видео:720x384, 1829 kbps, 23.976fps
    Информация о звуке 1:48 kHz, AC3, 2/0 (L,R) ch, 192 kbps.....Профессиональный (многоголосый закадровый)
    Информация о звуке 2:48 kHz, AC3, 2/0 (L,R) ch, 192 kbps.....Авторский (одноголосый закадровый) А.Михалев
    MI
    Общее
    Полное имя : Ruthless.People.1986.WEB-DLRip.avi
    Формат : AVI
    Формат/Информация : Audio Video Interleave
    Размер файла : 1,46 Гбайт
    Продолжительность : 1 ч. 33 м.
    Общий поток : 2227 Кбит/сек
    Программа кодирования : VirtualDubMod 1.5.10.2 (build 2542/release)
    Библиотека кодирования : VirtualDubMod build 2542/release
    Видео
    Идентификатор : 0
    Формат : MPEG-4 Visual
    Профиль формата : Advanced Simple@L5
    Параметр BVOP формата : 1
    Параметр QPel формата : Нет
    Параметр GMC формата : Без точки перехода
    Параметр матрицы формата : Выборочная
    Идентификатор кодека : XVID
    Идентификатор кодека/Подсказка : XviD
    Продолжительность : 1 ч. 33 м.
    Битрейт : 1829 Кбит/сек
    Ширина : 720 пикс.
    Высота : 384 пикс.
    Соотношение сторон : 1,875
    Частота кадров : 23,976 кадр/сек
    Цветовое пространство : YUV
    Подвыборка цветности : 4:2:0
    Битовая глубина : 8 бит
    Тип развёртки : Прогрессивная
    Метод сжатия : С потерями
    Бит/(Пиксели*Кадры) : 0.276
    Размер потока : 1,20 Гбайт (82%)
    Библиотека кодирования : XviD 73
    Аудио #1
    Идентификатор : 1
    Формат : AC-3
    Формат/Информация : Audio Coding 3
    Расширение режима : CM (complete main)
    Идентификатор кодека : 2000
    Продолжительность : 1 ч. 33 м.
    Вид битрейта : Постоянный
    Битрейт : 192 Кбит/сек
    Канал(ы) : 2 канала(ов)
    Расположение каналов : Front: L R
    Частота : 48,0 КГц
    Битовая глубина : 16 бит
    Метод сжатия : С потерями
    Размер потока : 129 Мбайт (9%)
    Выравнивание : Разделение по промежуткам
    Продолжительность промежутка : 42 мс. (1,00 видеокадр)
    Время предзагрузки промежутка : 500 ms
    Аудио #2
    Идентификатор : 2
    Формат : AC-3
    Формат/Информация : Audio Coding 3
    Расширение режима : CM (complete main)
    Идентификатор кодека : 2000
    Продолжительность : 1 ч. 33 м.
    Вид битрейта : Постоянный
    Битрейт : 192 Кбит/сек
    Канал(ы) : 2 канала(ов)
    Расположение каналов : Front: L R
    Частота : 48,0 КГц
    Битовая глубина : 16 бит
    Метод сжатия : С потерями
    Размер потока : 129 Мбайт (9%)
    Выравнивание : Разделение по промежуткам
    Продолжительность промежутка : 42 мс. (1,00 видеокадр)
    Время предзагрузки промежутка : 500 ms
    Скриншоты для ознакомления

    Релиз подготовил:Leon-masl
    Залил: leon-masl
    Размер скачиваемого торрента: 1.46 GB (1569978368 Bytes)

    Безжалостные люди/Ruthless People (1986) WEB-DLRip от Leon-masl | P, A скачать через торрент бесплатно
    загрузка...
    Рейтинг →
     (голосов: 1, оценка 5/5, голосовать можно 1 раз )

    Другие торренты по теме:

  • BBC: Безжалостные убийцы / Ultimate Killers (2001) DVDRip-AVC от Тorrent-Хzona


    • Комментарии (0):

      Информация

      Информация

        Посетители, находящиеся в группе Гости, не могут оставлять комментарии в данной новости.

        ↓ Меню



        ↓ Опрос

        А Вы добавили сайт в закладки?
        Да
        Не


        Top 10 за месяц (Фильмы)