.
Авторизация | Регистрация
» » Хранители света / The Lightkeepers (2009) HDTVRip | P скачать через торрент бесплатно




    Хранители света / The Lightkeepers (2009) HDTVRip | P скачать через торрент бесплатно

    Опубликовал: Админ | Дата: 27-02-2015, 11:10 | Просмотров: 160


    Детально о кино
    Русское название:Хранители света
    Русское название в мировом прокате:The Lightkeepers
    Создали в:2009
    Категория жанра:Укажите жанры, разделяя запятыми
    Главный режиссер:Дэниэл Адамс
    Актеры:Ричард Дрейфусс, Брюс Дерн, Мэми Гаммер, Блайт Даннер, Том Уисдом, Джули Харрис, Стивен Расселл, Теодора Грис, Джейсон Алан Смит, Бен Дрейфусс
    Сюжет фильма:
    Жизни двух смотрителей маяка, твёрдо решивших никогда больше не иметь дела с противоположным полом, полностью меняются, когда в домике на побережье появляются две прекрасные женщины.

    Снималось в:США
    Киностудия:Cape Filmworks, Dreyfuss/James Productions, Fish Weir Filmworks
    Время просмотра:01:32:36
    Перевод текста:Профессиональный (многоголосый закадровый)
    Файл
    Кодек для видео:XviD
    Качество фильма:HDTVRip
    Информация о видео:720x400, 1916 kbps, 25 fps, 0,266 Bits/(Pixel*Frame)
    Информация о звуке:AC3, 48 kHz, 2 ch, 192 kbps
    Субтитры:Нет
    Релиз подготовил:
    Автор рипа: _Bathory_
    Скриншоты для ознакомления

    MI
    General
    Complete name : J:RipThe.Lightkeepers.2009.HDTVRip.by_Bathory.avi
    Format : AVI
    Format/Info : Audio Video Interleave
    File size : 1.37 GiB
    Duration : 1h 32mn
    Overall bit rate : 2 116 Kbps
    Video
    ID : 0
    Format : MPEG-4 Visual
    Format profile : Advanced Simple@L5
    Format settings, BVOP : 1
    Format settings, QPel : No
    Format settings, GMC : No warppoints
    Format settings, Matrix : Custom
    Codec ID : XVID
    Codec ID/Hint : XviD
    Duration : 1h 32mn
    Bit rate : 1 916 Kbps
    Width : 720 pixels
    Height : 400 pixels
    Display aspect ratio : 16:9
    Frame rate : 25.000 fps
    Color space : YUV
    Chroma subsampling : 4:2:0
    Bit depth : 8 bits
    Scan type : Progressive
    Compression mode : Lossy
    Bits/(Pixel*Frame) : 0.266
    Stream size : 1.24 GiB (91%)
    Writing library : XviD 1.2.1 (UTC 2008-12-04)
    Audio
    ID : 1
    Format : AC-3
    Format/Info : Audio Coding 3
    Mode extension : CM (complete main)
    Format settings, Endianness : Big
    Codec ID : 2000
    Duration : 1h 32mn
    Bit rate mode : Constant
    Bit rate : 192 Kbps
    Channel(s) : 2 channels
    Channel positions : Front: L R
    Sampling rate : 48.0 KHz
    Bit depth : 16 bits
    Compression mode : Lossy
    Stream size : 127 MiB (9%)
    Alignment : Aligned on interleaves
    Interleave, duration : 64 ms (1.60 video frames)
    Interleave, preload duration : 192 ms
    Title : The Lightkeepers


    Залил: _Bathory_
    Размер скачиваемого торрента: 1.37 GB (1469235118 Bytes)

    Хранители света/The Lightkeepers (2009) HDTVRip | P скачать через торрент бесплатно
    загрузка...
    Рейтинг →
     (голосов: 1, оценка 4/5, голосовать можно 1 раз )

    Другие торренты по теме:

  • Хранители / Watchmen (2009) BDRip 720p от DHT-Movies | Режиссерская версия торрент скачать бесплатно
  • Ангел хранитель / Аnglavakt (2010) DVDRip | L1 торрент скачать бесплатно
  • Перумов Ник - Хранитель Мечей. Странствия мага. Том 2 (2013) MP3 торрент скачать бесплатно
  • Золотые истории 3: Хранители / Golden Trails 3: The Guardians Creed CE (2013) PC торрент скачать бесплатно
  • Хранитель времени / Hugo (2011) BDRip-AVC | iPad торрент скачать бесплатно
  • Хранители снов / Rise of the Guardians (2012) DVDScr | Звук с TS торрент скачать бесплатно
  • Вор – Коллекция Хранителя / Thief – Keeper’s Collection (1999-2005) PC | RePack торрент скачать бесплатно
  • Хранители 2: Последний Секрет Ордена / The Keepers 2: The Orders Last Secret CE (2013) PC торрент скачать бесплатно


    • Комментарии (0):

      Информация

      Информация

        Посетители, находящиеся в группе Гости, не могут оставлять комментарии в данной новости.

        ↓ Меню



        ↓ Опрос

        А Вы добавили сайт в закладки?
        Да
        Не


        Top 10 за неделю (Фильмы)