.
Авторизация | Регистрация
» » Черный Иисус / Black Jesus (2014) HDTVRip 720p | Jimmy J скачать через торрент бесплатно




    Черный Иисус / Black Jesus (2014) HDTVRip 720p | Jimmy J скачать через торрент бесплатно

    Опубликовал: Админ | Дата: 27-02-2015, 11:10 | Просмотров: 209

    Black Jesus - One Season
    Черный Иисус - Первый сезон любимого сериалаГод выхода: 2014
    Страна: США
    Жанр: драма
    Продолжительность: ~20 мин
    Озвучка:Профессиональный (одноголосый закадровый)Дмитрий Чепусов
    Режиссер: Майк Клаттенбёрг
    Все раздачи сериала |Sample
    Качество: HDTVRip 720p
    Формат: MKV
    Видео кодек: AVC
    Аудио кодек: AC3
    Видео: AVC, 1280х720, ~4500 kbps, 23.976 fps, 0.203 bit/pixel
    Аудио #1:Russian48 KHz, AC3, 6 channels, 448 KbpsAVO Jimmy J.
    Аудио #2:Original48 KHz, AC3, 6 channels, 448 Kbps
    Рип:Filyse
    ? MediaInfo

    code
    General
    Unique ID : 192088820343153276172250617758631672207 (0x9082F60B2E0602BBBC916EF39A55398F)
    Complete name : D:TorrentCompleteBlack Jesus.S04.AVO.Jimmy.J.HDTVRip.720pBlack Jesus.S01E01.HDTVRip.720p.mkv
    Format : Matroska
    Format version : Version 4/Version 2
    File size : 779 MiB
    Duration : 19mn 48s
    Overall bit rate : 5 496 Kbps
    Encoded date : UTC 2014-08-12 18:14:58
    Writing application : mkvmerge v7.1.0 (;Good Love;) 64bit built on Jul 27 2014 13:06:55
    Writing library : libebml v1.3.0 + libmatroska v1.4.1
    DURATION : 00:19:48.800000000
    NUMBER_OF_FRAMES : 37150
    NUMBER_OF_BYTES : 66572800
    _STATISTICS_WRITING_APP : mkvmerge v7.1.0 (;Good Love;) 64bit built on Jul 27 2014 13:06:55
    _STATISTICS_WRITING_DATE_UTC : 2014-08-12 18:14:58
    _STATISTICS_TAGS : BPS DURATION NUMBER_OF_FRAMES NUMBER_OF_BYTES
    Video
    ID : 1
    Format : AVC
    Format/Info : Advanced Video Codec
    Format profile : High@L4.1
    Format settings, CABAC : Yes
    Format settings, ReFrames : 5 frames
    Codec ID : V_MPEG4/ISO/AVC
    Duration : 19mn 48s
    Bit rate : 4 490 Kbps
    Width : 1 280 pixels
    Height : 720 pixels
    Display aspect ratio : 16:9
    Frame rate mode : Constant
    Frame rate : 23.976 fps
    Color space : YUV
    Chroma subsampling : 4:2:0
    Bit depth : 8 bits
    Scan type : Progressive
    Bits/(Pixel*Frame) : 0.203
    Stream size : 636 MiB (82%)
    Writing library : x264 core 142 r2453 ea0ca51
    Encoding settings : cabac=1/ref=5/deblock=1:0:0/analyse=0x3:0x113/me=umh/subme=8/psy=1/psy_rd=1.00:0.00/mixed_ref=1/me_range=16/chroma_me=1/trellis=1/8x8dct=1/cqm=0/deadzone=21,11/fast_pskip=1/chroma_qp_offset=-2/threads=18/lookahead_threads=3/sliced_threads=0/nr=0/decimate=1/interlaced=0/bluray_compat=0/constrained_intra=0/bframes=3/b_pyramid=2/b_adapt=2/b_bias=0/direct=3/weightb=1/open_gop=0/weightp=2/keyint=250/keyint_min=23/scenecut=40/intra_refresh=0/rc_lookahead=50/rc=crf/mbtree=1/crf=18.0/qcomp=0.60/qpmin=0/qpmax=69/qpstep=4/ip_ratio=1.40/aq=1:1.00
    Language : English
    Default : No
    Forced : No
    Matrix coefficients : BT.709
    DURATION : 00:19:46.727000000
    NUMBER_OF_FRAMES : 28453
    NUMBER_OF_BYTES : 683317110
    _STATISTICS_WRITING_APP : mkvmerge v7.1.0 (;Good Love;) 64bit built on Jul 27 2014 13:06:55
    _STATISTICS_WRITING_DATE_UTC : 2014-08-12 18:14:58
    _STATISTICS_TAGS : BPS DURATION NUMBER_OF_FRAMES NUMBER_OF_BYTES
    Audio #1
    ID : 2
    Format : AC-3
    Format/Info : Audio Coding 3
    Mode extension : CM (complete main)
    Format settings, Endianness : Big
    Codec ID : A_AC3
    Duration : 19mn 48s
    Bit rate mode : Constant
    Bit rate : 448 Kbps
    Channel(s) : 6 channels
    Channel positions : Front: L C R, Side: L R, LFE
    Sampling rate : 48.0 KHz
    Bit depth : 16 bits
    Compression mode : Lossy
    Stream size : 63.5 MiB (8%)
    Title : AVO Jimmy J
    Language : Russian
    Default : No
    Forced : No
    Audio #2
    ID : 3
    Format : AC-3
    Format/Info : Audio Coding 3
    Mode extension : CM (complete main)
    Format settings, Endianness : Big
    Codec ID : A_AC3
    Duration : 19mn 48s
    Bit rate mode : Constant
    Bit rate : 448 Kbps
    Channel(s) : 6 channels
    Channel positions : Front: L C R, Side: L R, LFE
    Sampling rate : 48.0 KHz
    Bit depth : 16 bits
    Compression mode : Lossy
    Stream size : 63.5 MiB (8%)
    Title : Original
    Language : English
    Default : No
    Forced : No
    /code
    ? Внимание! Раздача ведётся путём добавления новых серий!
    Внимание! Раздача ведётся путём добавления новых серий; при каждом добавлении создётся новый торрент. Чтобы начать докачку новой серии, пользователям необходимо сделать следующее:
    (1) остановить скачивание,
    (2) удалить старый торрент у себя из клиента (старые серии удалять не надо),
    (3) скачать новый торрент и запустить его у себя в клиенте вместо старого, при этом указать клиенту путь в старую папку куда и должно происходить скачивание новых серий.
    Ваш клиент при этом должен произвести хеширование (проверку) старой папки (если не производит сам - помогите ему сделать это), и будет докачивать только те серии которых у вас ещё нет. Старые серии при этом не удаляются, а продолжают раздаваться!
    Eсли вы уже удалили старые серии, то предотвратить повторную закачку старых серий можно, отжав галочку в соответсвующих местах при запуске нового торрента.
    ? Скриншоты для ознакомления
    /b
    Размер скачиваемого торрента: 778.83 MB (816662607 Bytes)

    Черный Иисус/Black Jesus (2014) HDTVRip 720p | Jimmy J скачать через торрент бесплатно
    загрузка...
    Рейтинг →
     (голосов: 1, оценка 5/5, голосовать можно 1 раз )

    Другие торренты по теме:

  • Черный Иисус / Black Jesus (2014) HDTVRip от qqss44 | Jimmy J скачать через торрент бесплатно
  • Черный Иисус / Black Jesus (2015) HDTVRip 720p от Jimmy J | L1 скачать торрент бесплатно


    • Комментарии (0):

      Информация

      Информация

        Посетители, находящиеся в группе Гости, не могут оставлять комментарии в данной новости.

        ↓ Меню



        ↓ Опрос

        А Вы добавили сайт в закладки?
        Да
        Не


        Top 10 за неделю (Фильмы)