.
Авторизация | Регистрация
» » Дорога в Редемпшн / Redemption Road (2010) HDTV 1080i | P торрент скачать бесплатно




    Дорога в Редемпшн / Redemption Road (2010) HDTV 1080i | P торрент скачать бесплатно

    Опубликовал: Админ | Дата: 27-02-2015, 11:10 | Просмотров: 248


    Детально о кино
    Русское название:Дорога в Редемпшн
    Русское название в мировом прокате:Redemption Road
    Создали в:2010
    Категория жанра:драма
    Главный режиссер:Марио Ван Пиблз
    Актеры:Тэрин Мэннинг, Майкл Кларк Дункан, Киле Санчес, Люк Перри, Том Скеррит, Мелвин Ван Пиблз, Линдс Эдвардс, Джет Юргенсмейер, Джеймс Кук, Катрин МакГухан
    Сюжет фильма:
    Джефферсон Бэйли — большой поклонник блюза, талантливый автор-исполнитель из Техаса, который прекратил свою карьеру из-за страха перед сценой. После разрыва с женой, которая изменила ему, Бэйли неохотно решает присоединиться к незнакомцу Оджи и отправиться вместе с ним в долгую поездку в Хантсвилл, город в Алабаме, где Джефферсон когда-то жил.


    Снималось в:США
    Время просмотра:01:31:25
    Перевод текста:Профессиональный (многоголосый закадровый)
    Файл
    Кодек для видео:H.264
    Качество фильма:HDTV 1080i
    Информация о видео:1920x1080 (16:9), 9071Кбит/сек, 25.000 fps
    Информация о звуке:MP-2, 48000 Hz, 192 Кбит/сек, 2 ch
    Субтитры:нет
    Семпл
    MediaInfo

    Видео
    Идентификатор : 224 (0xE0)
    Идентификатор меню : 1 (0x1)
    Формат : AVC
    Формат/Информация : Advanced Video Codec
    Профиль формата : High@L4.1
    Параметр CABAC формата : Да
    Параметр ReFrames формата : 3 кадра
    Идентификатор кодека : 27
    Продолжительность : 1 ч. 31 м.
    Вид битрейта : Постоянный
    Битрейт : 9071 Кбит/сек
    Ширина : 1920 пикселей
    Высота : 1080 пикселей
    Соотношение сторон : 16:9
    Частота кадров : 25,000 кадров/сек
    Стандарт вещания : PAL
    Цветовое пространство : YUV
    Субдискретизация насыщенности : 4:2:0
    Битовая глубина : 8 бит
    Тип развёртки : Чересстрочная
    Порядок развёртки : Верхнее поле первое
    Бит/(Пиксели*Кадры) : 0.175
    Размер потока : 5,68 Гбайт (93%)
    Основные цвета : BT.709
    Характеристики трансфера : BT.709
    Коэффициенты матрицы : BT.709
    Аудио
    Идентификатор : 192 (0xC0)
    Идентификатор меню : 1 (0x1)
    Формат : MPEG Audio
    Версия формата : Version 1
    Профиль формата : Layer 2
    Идентификатор кодека : 3
    Продолжительность : 1 ч. 31 м.
    Вид битрейта : Постоянный
    Битрейт : 192 Кбит/сек
    Каналы : 2 канала
    Частота : 48,0 КГц
    Метод сжатия : С потерями
    Размер потока : 126 Мбайт (2%)

    Скриншоты для ознакомления

    Релиз подготовил:Rmk80disco
    Залил: Rmk80disco
    Размер скачиваемого торрента: 6.11 GB (6560910668 Bytes)

    Дорога в Редемпшн/Redemption Road (2010) HDTV 1080i | P торрент скачать бесплатно
    загрузка...
    Рейтинг →
     (голосов: 1, оценка 4/5, голосовать можно 1 раз )

    Другие торренты по теме:

  • Главная дорога (2012) SATRip торрент скачать бесплатно
  • Russak (Ритм дорог) - Всё что осталось (2011) MP3 от b-kpo торрент скачать бесплатно
  • Ритм дорог - Музыка со смыслом (2012) MP3 от b-kpo торрент скачать бесплатно
  • Дорогой Джон / Dear John (2010) HDRip от Scarabey | D торрент скачать бесплатно
  • Дорога / The Road (2009) BDRip-AVC торрент скачать бесплатно
  • Главная дорога (2013) SATRip торрент скачать бесплатно
  • Мега подборка видео регистраторов - Му@@ки на дороге 3 (2013) WEBRip торрент скачать бесплатно
  • Дин Кунц - Неведомые дороги (2007) (2013) MP3 торрент скачать бесплатно


    • Комментарии (0):

      Информация

      Информация

        Посетители, находящиеся в группе Гости, не могут оставлять комментарии в данной новости.

        ↓ Меню



        ↓ Опрос

        А Вы добавили сайт в закладки?
        Да
        Не


        Top 10 за неделю (Фильмы)