.
Авторизация | Регистрация
Хочешь лучшие торренты? Добавь свой email!
Добавить
» » Это не ты / Роман о романе / A Novel Romance (2011) HDTV 1080i торрент скачать бесплатно




    Это не ты / Роман о романе / A Novel Romance (2011) HDTV 1080i торрент скачать бесплатно

    Опубликовал: Админ | Дата: 27-02-2015, 11:10 | Просмотров: 245


    Детально о кино
    Русское название:Это не ты/Роман о романе
    Русское название в мировом прокате:A Novel Romance
    Создали в:2011
    Категория жанра:мелодрама
    Главный режиссер:Элли Дворин
    Актеры:Шеннон Элизабет, Джеффри Росс, Наталья Рудакова, Стив Гуттенберг, Келли Бишоп, Джей О. Сэндерс, Милена Гович, Даг Э. Даг, Томас Майкл Салливан, Мэдди Кормэн
    Сюжет фильма:
    Писатель Нейт Шепэрд и прекрасная Дженни Спаркс встречаются в нью-йоркском баре. Совершенно незнакомые люди, у которых был плохой день, пришли сюда на свидание со своими партнерами, но вскоре они понимают, что, на самом деле, ждут друг друга.


    Снималось в:США
    Время просмотра:01:28:06
    Перевод текста:Профессиональный (многоголосый закадровый)
    Файл
    Кодек для видео:h.264
    Качество фильма:HDTV 1080i
    Информация о видео:1920x1080 (16:9), 8900 Кбит/сек, 25.000 fps
    Информация о звуке:MP-2, 48000 Hz, 192 Кбит/сек, 2 ch
    Субтитры:нет
    Семпл
    MediaInfo

    Видео
    Идентификатор : 224 (0xE0)
    Идентификатор меню : 1 (0x1)
    Формат : AVC
    Формат/Информация : Advanced Video Codec
    Профиль формата : High@L4.1
    Параметр CABAC формата : Да
    Параметр ReFrames формата : 3 кадра
    Идентификатор кодека : 27
    Продолжительность : 1 ч. 28 м.
    Вид битрейта : Постоянный
    Битрейт : 8900 Кбит/сек
    Ширина : 1920 пикселей
    Высота : 1080 пикселей
    Соотношение сторон : 16:9
    Частота кадров : 25,000 кадров/сек
    Стандарт вещания : PAL
    Цветовое пространство : YUV
    Субдискретизация насыщенности : 4:2:0
    Битовая глубина : 8 бит
    Тип развёртки : Чересстрочная
    Порядок развёртки : Верхнее поле первое
    Бит/(Пиксели*Кадры) : 0.172
    Размер потока : 5,37 Гбайт (93%)
    Основные цвета : BT.709
    Характеристики трансфера : BT.709
    Коэффициенты матрицы : BT.709
    Аудио
    Идентификатор : 192 (0xC0)
    Идентификатор меню : 1 (0x1)
    Формат : MPEG Audio
    Версия формата : Version 1
    Профиль формата : Layer 2
    Идентификатор кодека : 3
    Продолжительность : 1 ч. 28 м.
    Вид битрейта : Постоянный
    Битрейт : 192 Кбит/сек
    Каналы : 2 канала
    Частота : 48,0 КГц
    Метод сжатия : С потерями
    Задержка видео : 24 мс.
    Размер потока : 121 Мбайт (2%)
    Язык : Russian

    Скриншоты для ознакомления

    Релиз подготовил:Rmk80disco
    Залил: Rmk80disco
    Размер скачиваемого торрента: 5.78 GB (6203814068 Bytes)

    Это не ты/Роман о романе/A Novel Romance (2011) HDTV 1080i торрент скачать бесплатно
    загрузка...
    Рейтинг →
     (голосов: 1, оценка 4/5, голосовать можно 1 раз )

    Другие торренты по теме:

  • Это не я, это другой / Cest pas moi, cest lautre (2004) DVDRip от Хихидок
  • Это не я, это - он! / Cest pas moi, cest lui (1980) DVDRip от New-Team
  • Это не я, это - он! / Cest pas moi, cest lui (1980) DVDRip-AVC от New-Team
  • Артем Каневский - Это не ретро, это сегодняшний день скачать через торрент бесплатно
  • Хамилтон 2: только если это не касается вашей дочери / Hamilton 2: Unless Its About Your Daughter (2012) HDRip | L1
  • VA - Это не рок-н-ролл: трибьют Олди и Комитету Охраны Тепла (2013) MP3 скачать через торрент бесплатно
  • МАТЕР!Я (Динайс, Інквізитор) - Это не конец (2014) MP3 от Kulemina - Generalfilm скачать через торрент бесплатно
  • Гран-Куражъ - Это не игра (2014) mp3 скачать через торрент бесплатно


    • Комментарии (0):

      Информация

      Информация

        Посетители, находящиеся в группе Гости, не могут оставлять комментарии в данной новости.

        ↓ Меню



        ↓ Опрос

        А Вы добавили сайт в закладки?
        Да
        Не


        Top 10 за месяц (Фильмы)