.
Авторизация | Регистрация




Жук / Бизору / Besouro (2009) DVD-9 торрент скачать бесплатно

Опубликовал: Админ | Дата: 27-02-2015, 11:10 | Просмотров: 198


Детально о кино
Русское название:Жук/Бизору
Русское название в мировом прокате:Besouro
Создали в:2009
Категория жанра:Боевик, драма, приключения, биография
Главный режиссер:Жуан Даниэль Тихомирофф
Актеры:Айтон Кармо, Жессика Барбоза, Флавиу Роча, Ирандьир Сантуш, Макале, Андерсон Сантуш де Жезуш, Лену Сакраменту, Крис Вианна, Сержиу Лаурентину, Гейса Коста, Нилтон Жуниор, Сервилио ди Оланда, Антонио Фабио, Адриана Алвес, Мигель Лунарди
Сюжет фильма:Приключенческий фильм о бразильском мастере капоэйры и борце за права чернокожего населения Мануэле Энрике Перейре, больше известного под боевым прозвищем Жук. 20-е годы прошлого века, Бразилия. Рабства уже нет, но особых прав у бывших рабов нет тоже. Властям выгоден бесплатный труд. Наряду с другими элементами культуры неевропейского населения страны, запрещена и капоэйра, а тех, кто ей занимается, преследуют по закону, поэтому бойцы капоэйры вынуждены организовывать подобие подпольных партизанских отрядов. Один из таких отрядов возглавляет Жук — он поджигает богатые плантации, уничтожает сельскохозяйственную технику. За Жуком и его соратниками идет постоянная охота.
Снималось в:Бразилия
Киностудия:Globo Filmes, Mixer, Teleimage
Время просмотра:01:33:30
Перевод текста:Профессиональный многоголосый
Субтитры:Русские, английские, португальские

Файл
Кодек для видео:MPEG-2
Качество фильма:DVD-9
Информация о видео:NTSC 16:9 (720x480) VBR
Информация о звуке:Русский (Dolby AC3, 2 ch), португальский (Dolby AC3, 2 ch)
Меню
/spoiler
DVDInfo
Title: DATA
Size: 5.45 Gb ( 5 712 096 KBytes ) - DVD-9
Enabled regions: 1, 2, 3, 4, 5, 6, 7, 8
VTS_01 :
Play Length: 01:33:30
Video: NTSC 16:9 (720x480) VBR, Auto PanScan
Audio:
Portugues (Dolby AC3, 6 ch)
Russian (Dolby AC3, 2 ch)
Subtitles:
Portugues
English
Russian
VTS_02 :
Play Length: 00:22:00
Video: NTSC 4:3 (720x480) VBR
Audio:
Portugues (Dolby AC3, 2 ch)
Subtitles:
Portugues
English
Espanol
Portugues
VTS_03 :
Play Length: 00:05:31
Video: NTSC 4:3 (720x480) VBR
Audio:
Portugues (Dolby AC3, 2 ch)
Subtitles:
Portugues
English
Espanol
Portugues
VTS_04 :
Play Length: 00:03:36
Video: NTSC 4:3 (720x480) VBR
Audio:
Portugues (Dolby AC3, 2 ch)
Subtitles:
Portugues
English
Espanol
Portugues
VTS_05 :
Play Length: 00:09:44
Video: NTSC 4:3 (720x480) VBR
Audio:
Portugues (Dolby AC3, 2 ch)
Subtitles:
Portugues
English
Espanol
Portugues
VTS_06 :
Play Length: 00:04:57
Video: NTSC 4:3 (720x480) VBR
Audio:
Portugues (Dolby AC3, 2 ch)
Subtitles:
Portugues
English
Espanol
Portugues
VTS_07 :
Play Length: 00:05:18
Video: NTSC 4:3 (720x480) VBR
Audio:
Portugues (Dolby AC3, 2 ch)
Subtitles:
Portugues
English
Espanol
Portugues
Menu Video:
NTSC 4:3 (720x480) VBR
Auto PanScan, Auto Letterboxed
Menu English Language Unit :
Root Menu
MediaInfo
Общее
Полное имя : D:залитьЖУКVIDEO_TSVTS_01_1.VOB
Формат : MPEG-PS
Размер файла : 1024 Мбайт
Продолжительность : 26 м.
Режим общего битрейта : Переменный
Общий поток : 5330 Кбит/сек
Видео
Идентификатор : 224 (0xE0)
Формат : MPEG Video
Версия формата : Version 2
Профиль формата : Main@Main
Параметр BVOP формата : Да
Параметр матрицы формата : Выборочная
Параметр GOP формата : M=3, N=15
Продолжительность : 26 м.
Вид битрейта : Переменный
Битрейт : 4584 Кбит/сек
Максимальный битрейт : 8500 Кбит/сек
Ширина : 720 пикселей
Высота : 480 пикселей
Соотношение сторон : 16:9
Частота кадров : 29,970 кадров/сек
Стандарт вещания : NTSC
Цветовое пространство : YUV
Субдискретизация насыщенности : 4:2:0
Битовая глубина : 8 бит
Тип развёртки : Чересстрочная
Порядок развёртки : Верхнее поле первое
Метод сжатия : С потерями
Бит/(Пиксели*Кадры) : 0.443
TimeCode_FirstFrame : 00:59:59:15
TimeCode_Source : Group of pictures t_head
Размер потока : 881 Мбайт (86%)
Аудио #1
Идентификатор : 189 (0xBD)-128 (0x80)
Формат : AC-3
Формат/Информация : Audio Coding 3
Расширение режима : CM (complete main)
Параметр Endianness формата : Big
Режим смешивания : DVD-Video
Продолжительность : 26 м.
Вид битрейта : Постоянный
Битрейт : 448 Кбит/сек
Каналы : 6 каналов
Расположение каналов : Front: L C R, Side: L R, LFE
Частота : 48,0 КГц
Битовая глубина : 16 бит
Метод сжатия : С потерями
Задержка видео : -66 мс.
Размер потока : 86,0 Мбайт (8%)
Аудио #2
Идентификатор : 189 (0xBD)-129 (0x81)
Формат : AC-3
Формат/Информация : Audio Coding 3
Расширение режима : CM (complete main)
Параметр Endianness формата : Big
Режим смешивания : DVD-Video
Продолжительность : 26 м.
Вид битрейта : Постоянный
Битрейт : 192 Кбит/сек
Каналы : 2 канала
Расположение каналов : Front: L R
Частота : 48,0 КГц
Битовая глубина : 16 бит
Метод сжатия : С потерями
Задержка видео : -66 мс.
Размер потока : 36,9 Мбайт (4%)
Меню
Скриншоты для ознакомления

Залил: YArl
Размер скачиваемого торрента: 5.45 GB (5849186304 Bytes)

Жук/Бизору/Besouro (2009) DVD-9 торрент скачать бесплатно
загрузка...
Рейтинг →
 (голосов: 1, оценка 4/5, голосовать можно 1 раз )

Другие торренты по теме:

  • Темные истории: Эдгар Аллан По. Золотой жук / Dark Tales 4: Edgar Allan Poes The Gold Bug CE (2013) PC торрент скачать бесплатно
  • Хоппити едет в город / Приключения жука Хоппити / Mr. Bug Goes to Town / Hoppity Goes to Town (1941) DVDRip | A торрент скачать бесплатно
  • Рома Жуков - D.I.S.C.O. (2013) MP3 торрент скачать бесплатно
  • Рома Жуков - Коллекция (1989-2013) FLAC торрент скачать бесплатно
  • Руки Вверх (Сергей Жуков) - Дискография (1997-2012) МР3 от IMA-Sound торрент скачать бесплатно
  • Аркадий и Борис Стругацкие - Обитаемый остров. Жук в муравейнике. Волны гасят ветер (2013) MP3 торрент скачать бесплатно
  • Июньский жук / Junebug (2005) BDRip | P торрент скачать бесплатно
  • Июньский жук / Junebug (2005) BDRip 720p | P торрент скачать бесплатно


    • Комментарии (0):

      Информация

      Информация

        Посетители, находящиеся в группе Гости, не могут оставлять комментарии в данной новости.

        ↓ Меню



        ↓ Опрос

        А Вы добавили сайт в закладки?
        Да
        Не


        Top 10 за неделю (Фильмы)