.
Авторизация | Регистрация
» » Три безмолвия / Les trois silences (2013) HDTV 1080i скачать через торрент бесплатно




    Три безмолвия / Les trois silences (2013) HDTV 1080i скачать через торрент бесплатно

    Опубликовал: Админ | Дата: 27-02-2015, 11:10 | Просмотров: 191


    Детально о кино
    Русское название:Три безмолвия
    Русское название в мировом прокате:Les trois silences
    Создали в:2013
    Категория жанра:драма
    Главный режиссер:Лоран Эрбье
    Актеры:Жан-Юг Англад, Жюли-Мари Парментье, Каролин Сиоль, Морис Водо, Пьер Вернье
    Сюжет фильма:
    Сомневающаяся в чувствах партнера Оливия решает за ним проследить, и ее опасения оправдываются: он действительно ей изменяет, а вскоре оставляет ее ради другой. Но это лишь положит начало трагическим потрясениям в жизни героев.

    Снималось в:Франция
    Время просмотра:01:30:30
    Перевод текста:Профессиональный (многоголосый закадровый)
    Файл
    Кодек для видео:H.264
    Качество фильма:HDTV 1080i
    Информация о видео:1920x1080 (16:9), 9041 Кбит/сек, 25.000 fps
    Информация о звуке:MP-2, 48000 Hz, 192 Кбит/сек, 2 ch
    Субтитры:нет
    Семпл
    MediaInfo

    Видео
    Идентификатор : 224 (0xE0)
    Идентификатор меню : 1 (0x1)
    Формат : AVC
    Формат/Информация : Advanced Video Codec
    Профиль формата : High@L4.1
    Параметр CABAC формата : Да
    Параметр ReFrames формата : 3 кадра
    Идентификатор кодека : 27
    Продолжительность : 1 ч. 30 м.
    Вид битрейта : Постоянный
    Битрейт : 9041 Кбит/сек
    Ширина : 1920 пикселей
    Высота : 1080 пикселей
    Соотношение сторон : 16:9
    Частота кадров : 25,000 кадров/сек
    Стандарт вещания : PAL
    Цветовое пространство : YUV
    Субдискретизация насыщенности : 4:2:0
    Битовая глубина : 8 бит
    Тип развёртки : Чересстрочная
    Порядок развёртки : Верхнее поле первое
    Бит/(Пиксели*Кадры) : 0.174
    Размер потока : 5,60 Гбайт (93%)
    Основные цвета : BT.709
    Характеристики трансфера : BT.709
    Коэффициенты матрицы : BT.709
    Аудио
    Идентификатор : 192 (0xC0)
    Идентификатор меню : 1 (0x1)
    Формат : MPEG Audio
    Версия формата : Version 1
    Профиль формата : Layer 2
    Идентификатор кодека : 3
    Продолжительность : 1 ч. 30 м.
    Вид битрейта : Постоянный
    Битрейт : 192 Кбит/сек
    Каналы : 2 канала
    Частота : 48,0 КГц
    Метод сжатия : С потерями
    Задержка видео : 8 мс.
    Размер потока : 124 Мбайт (2%)
    Язык : Russian

    Скриншоты для ознакомления

    Релиз подготовил:Rmk80disco
    Залил: Rmk80disco
    Размер скачиваемого торрента: 6.03 GB (6469409564 Bytes)

    Три безмолвия/Les trois silences (2013) HDTV 1080i скачать через торрент бесплатно
    загрузка...
    Рейтинг →
     (голосов: 1, оценка 3/5, голосовать можно 1 раз )

    Другие торренты по теме:

  • Три шведки с Рипербана / Три шведки в Гамбурге / Drei Schwedinnen auf der Reeperbahn (1980) DVDRip | L1 скачать через торрент бесплатно
  • Три богатыря на дальних берегах (2012) CAMRip торрент скачать бесплатно
  • Три орешка для Золушки / Tri orsky pro Popelku (1973) DVD9 от NovaLan торрент скачать бесплатно
  • Москва. Три вокзала - 5 (2012) SATRip от КинозалSAT торрент скачать бесплатно
  • Три богатыря на дальних берегах (2012) DVDRip | КПК торрент скачать бесплатно
  • Три богатыря на дальних берегах (2012) DVD5 R5 от Youtracker торрент скачать бесплатно
  • Три метра над уровнем неба / Tres metros sobre el cielo (2010) BDRip-AVC | iPad торрент скачать бесплатно
  • Москва. Три вокзала 5 (2012) SATRip от BigFANGroup торрент скачать бесплатно


    • Комментарии (0):

      Информация

      Информация

        Посетители, находящиеся в группе Гости, не могут оставлять комментарии в данной новости.

        ↓ Меню



        ↓ Опрос

        А Вы добавили сайт в закладки?
        Да
        Не


        Top 10 за неделю (Фильмы)