.
Авторизация | Регистрация
» » Белль / Belle (2013) BDRip 720p | L1 скачать через торрент бесплатно




    Белль / Belle (2013) BDRip 720p | L1 скачать через торрент бесплатно

    Опубликовал: Админ | Дата: 27-02-2015, 11:10 | Просмотров: 257

    Белль/Belle
    Русское название:Белль
    Русское название в мировом прокате:Belle
    Создали в:2013
    Категория жанра:Драма, мелодрама, реальные события

    Главный режиссер:Амма Асанте
    Актеры:Гугу Мбата-Роу, Том Уилкинсон, Миранда Ричардсон, Пенелопа Уилтон, Мэттью Гуд, Эмили Уотсон, Лорен Жюльен-Бокс, Наташа Уильямс, Алан МакКенна, Кара Дженкинс

    Сюжет фильма:
    Сюжет фильма основан на жизни Дайдо Элизабет Белль (XVIII век). Она была внебрачной дочерью капитана королевского флота Джона Линдси, а ее матерью была чернокожая женщина по имени Мария Белль.



    Снималось в:Великобритания, British Film Institute (BFI)
    Время просмотра:01:43:50
    Перевод текста:Любительский одноголосый (Lord32x)

    Качество фильма:BDRip 720p
    Информация о видео:MPEG-4 AVC, 5849 Кбит/с, 1280x534
    Информация о звуке:Русский (AC3, 6 ch, 384 Кбит/с), английский (DTS, 6 ch, 1509 Кбит/с)
    Субтитры:Русские, английские
    Скриншоты для ознакомления




    MediaInfo
    x264 : frame I:1263 Avg QP:10.87 size:129817
    x264 : frame P:27549 Avg QP:12.58 size: 56774
    x264 : frame B:120564 Avg QP:13.01 size: 23585
    x264 : consecutive B-frames: 1.6% 1.0% 5.7% 10.6% 14.1% 41.5% 8.4% 3.6% 4.0% 2.5% 2.9% 4.1%
    Общее
    Уникальный идентификатор : 202476811481847963715714230582892751246 (0x98539D8CAB5AE7E19FC7E2FFA436E98E)
    Полное имя : E:Belle.2013.L1.720p.BluRay.mkv
    Формат : Matroska
    Версия формата : Version 2
    Размер файла : 5,63 Гбайт
    Продолжительность : 1 ч. 43 м.
    Общий поток : 7766 Кбит/сек
    Название фильма : Belle.2013.720p.BluRay.DTS.x264-HDAccess
    Дата кодирования : UTC 2014-08-14 19:10:30
    Программа кодирования : mkvmerge v7.1.0 (;Good Love;) 64bit built on Jul 27 2014 13:06:55
    Библиотека кодирования : libebml v1.3.0 + libmatroska v1.4.1
    DURATION : 01:35:57.449000000
    NUMBER_OF_FRAMES : 1250
    NUMBER_OF_BYTES : 46076
    _STATISTICS_WRITING_APP : mkvmerge v7.1.0 (;Good Love;) 64bit built on Jul 27 2014 13:06:55
    _STATISTICS_WRITING_DATE_UTC : 2014-08-14 19:10:30
    _STATISTICS_TAGS : BPS DURATION NUMBER_OF_FRAMES NUMBER_OF_BYTES
    Видео
    Идентификатор : 1
    Формат : AVC
    Формат/Информация : Advanced Video Codec
    Профиль формата : High@L4.1
    Параметр CABAC формата : Да
    Параметр ReFrames формата : 12 кадров
    Идентификатор кодека : V_MPEG4/ISO/AVC
    Продолжительность : 1 ч. 43 м.
    Битрейт : 5718 Кбит/сек
    Ширина : 1280 пикселей
    Высота : 534 пикселя
    Соотношение сторон : 2,40:1
    Режим частоты кадров : Постоянный
    Частота кадров : 23,976 кадра/сек
    Цветовое пространство : YUV
    Субдискретизация насыщенности : 4:2:0
    Битовая глубина : 8 бит
    Тип развёртки : Прогрессивная
    Бит/(Пиксели*Кадры) : 0.349
    Размер потока : 4,15 Гбайт (74%)
    Библиотека кодирования : x264 core 142 r2453kMod ea0ca51
    Настройки программы : cabac=1/ref=12/deblock=1:-3:-3/analyse=0x3:0x133/me=umh/subme=10/psy=1/fade_compensate=0.00/psy_rd=1.00:0.00/mixed_ref=1/me_range=24/chroma_me=1/trellis=2/8x8dct=1/cqm=0/deadzone=21,11/fast_pskip=0/chroma_qp_offset=-2/threads=12/lookahead_threads=3/sliced_threads=0/nr=0/decimate=0/interlaced=0/bluray_compat=0/constrained_intra=0/fgo=0/bframes=11/b_pyramid=2/b_adapt=2/b_bias=0/direct=3/weightb=1/open_gop=0/weightp=2/keyint=250/keyint_min=23/scenecut=40/intra_refresh=0/rc=crf/mbtree=0/crf=14.6000/qcomp=0.75/qpmin=0/qpmax=69/qpstep=4/ip_ratio=1.30/pb_ratio=1.20/aq=1:0.90
    Язык : English
    Default : Да
    Forced : Нет
    DURATION : 01:43:50.224000000
    NUMBER_OF_FRAMES : 149376
    NUMBER_OF_BYTES : 4571577915
    _STATISTICS_WRITING_APP : mkvmerge v7.1.0 (;Good Love;) 64bit built on Jul 27 2014 13:06:55
    _STATISTICS_WRITING_DATE_UTC : 2014-08-14 19:10:30
    _STATISTICS_TAGS : BPS DURATION NUMBER_OF_FRAMES NUMBER_OF_BYTES
    Аудио #1
    Идентификатор : 2
    Формат : AC-3
    Формат/Информация : Audio Coding 3
    Расширение режима : CM (complete main)
    Параметр Endianness формата : Big
    Идентификатор кодека : A_AC3
    Продолжительность : 1 ч. 43 м.
    Вид битрейта : Постоянный
    Битрейт : 384 Кбит/сек
    Каналы : 6 каналов
    Расположение каналов : Front: L C R, Side: L R, LFE
    Частота : 48,0 КГц
    Битовая глубина : 16 бит
    Метод сжатия : С потерями
    Размер потока : 285 Мбайт (5%)
    Заголовок : VO Lord32x
    Язык : Russian
    Default : Да
    Forced : Нет
    Аудио #2
    Идентификатор : 3
    Формат : DTS
    Формат/Информация : Digital Theater Systems
    Режим : 16
    Параметр Endianness формата : Big
    Идентификатор кодека : A_DTS
    Продолжительность : 1 ч. 43 м.
    Вид битрейта : Постоянный
    Битрейт : 1509 Кбит/сек
    Каналы : 6 каналов
    Расположение каналов : Front: L C R, Side: L R, LFE
    Частота : 48,0 КГц
    Битовая глубина : 24 бит
    Метод сжатия : С потерями
    Размер потока : 1,09 Гбайт (19%)
    Язык : English
    Default : Нет
    Forced : Нет
    Текст #1
    Идентификатор : 4
    Формат : UTF-8
    Идентификатор кодека : S_TEXT/UTF8
    Идентификатор кодека/Информация : UTF-8 Plain Text
    Язык : Russian
    Default : Нет
    Forced : Нет
    Текст #2
    Идентификатор : 5
    Формат : UTF-8
    Идентификатор кодека : S_TEXT/UTF8
    Идентификатор кодека/Информация : UTF-8 Plain Text
    Заголовок : SDH
    Язык : English
    Default : Нет
    Forced : Нет
    Меню
    00:00:00.000 : en:00:00:00.000
    00:03:05.936 : en:00:03:05.936
    00:06:12.372 : en:00:06:12.372
    00:09:26.399 : en:00:09:26.399
    00:11:32.942 : en:00:11:32.942
    00:13:39.360 : en:00:13:39.360
    00:15:51.367 : en:00:15:51.367
    00:20:29.145 : en:00:20:29.145
    00:23:45.633 : en:00:23:45.633
    00:27:29.273 : en:00:27:29.273
    00:29:37.025 : en:00:29:37.025
    00:32:49.009 : en:00:32:49.009
    00:34:40.578 : en:00:34:40.578
    00:36:58.216 : en:00:36:58.216
    00:39:22.443 : en:00:39:22.443
    00:41:31.280 : en:00:41:31.280
    00:44:38.759 : en:00:44:38.759
    00:47:47.698 : en:00:47:47.698
    00:49:29.216 : en:00:49:29.216
    00:52:58.759 : en:00:52:58.759
    00:56:23.046 : en:00:56:23.046
    01:00:39.302 : en:01:00:39.302
    01:03:51.036 : en:01:03:51.036
    01:08:01.286 : en:01:08:01.286
    01:10:44.824 : en:01:10:44.824
    01:14:45.189 : en:01:14:45.189
    01:19:24.093 : en:01:19:24.093
    01:23:06.690 : en:01:23:06.690
    01:26:01.323 : en:01:26:01.323
    01:29:12.264 : en:01:29:12.264
    01:35:24.886 : en:01:35:24.886
    01:37:57.080 : en:01:37:57.080

    Размер скачиваемого торрента: 5.63 GB (6048047907 Bytes)

    Белль/Belle (2013) BDRip 720p | L1 скачать через торрент бесплатно
    загрузка...
    Рейтинг →
     (голосов: 1, оценка 5/5, голосовать можно 1 раз )

    Другие торренты по теме:



      Комментарии (0):

      Информация

      Информация

        Посетители, находящиеся в группе Гости, не могут оставлять комментарии в данной новости.

        ↓ Меню



        ↓ Опрос

        А Вы добавили сайт в закладки?
        Да
        Не


        Top 10 за неделю (Фильмы)