.
Авторизация | Регистрация
» » Дикие сердца / Our Wild Hearts (2013) HDTV 1080i скачать через торрент бесплатно




    Дикие сердца / Our Wild Hearts (2013) HDTV 1080i скачать через торрент бесплатно

    Опубликовал: Админ | Дата: 27-02-2015, 11:10 | Просмотров: 200


    Детально о кино
    Русское название:Дикие сердца
    Русское название в мировом прокате:Our Wild Hearts
    Создали в:2013
    Категория жанра:семейный, вестерн
    Главный режиссер:Рик Шродер
    Актеры:Элуиз Деджориа, Вероника Данн, Мартин Коув, Анджела Линдвэлл, Крис Дж. Келли, Карл Мергенталер, Клифф Поттс, Камбри Шродер, Холден Шродер, Люк Шродер
    Сюжет фильма:
    Уиллоу, пытающаяся найти себя в жизни девочка-подросток, одержима идеей найти своего отца, которого она никогда не видела. Она бросает свою праздную жизнь в Малибу и отправляется в горы Сьерра-Невада, где она неожиданно заявляется к местному ковбою Джеку, не подозревающему, что у него оказывается есть дети. На ранчо Уиллоу находит общий язык с диким и неподдающимся мустангом по кличке Браво. В то время как Джек хочет обуздать и приручить великолепного скакуна, Уиллоу уверена, что Браво должен быть свободной лошадью. Станет ли дикий жеребец, который свёл взрослую дочь и потерянного отца вместе, причиной очередного разрыва?

    Снималось в:США
    Время просмотра:01:25:29
    Перевод текста:Профессиональный (многоголосый закадровый)
    Файл
    Кодек для видео:H.264
    Качество фильма:HDTV 1080i
    Информация о видео:1920x1080 (16:9), 8926 Кбит/сек, 25.000 fps
    Информация о звуке:MP-2, 48000 Hz, 192 Кбит/сек, 2 ch
    Субтитры:нет
    Семпл
    MediaInfo

    Видео
    Идентификатор : 224 (0xE0)
    Идентификатор меню : 1 (0x1)
    Формат : AVC
    Формат/Информация : Advanced Video Codec
    Профиль формата : High@L4.1
    Параметр CABAC формата : Да
    Параметр ReFrames формата : 3 кадра
    Идентификатор кодека : 27
    Продолжительность : 1 ч. 25 м.
    Вид битрейта : Постоянный
    Битрейт : 8926 Кбит/сек
    Ширина : 1920 пикселей
    Высота : 1080 пикселей
    Соотношение сторон : 16:9
    Частота кадров : 25,000 кадров/сек
    Стандарт вещания : PAL
    Цветовое пространство : YUV
    Субдискретизация насыщенности : 4:2:0
    Битовая глубина : 8 бит
    Тип развёртки : Чересстрочная
    Порядок развёртки : Верхнее поле первое
    Бит/(Пиксели*Кадры) : 0.172
    Размер потока : 5,23 Гбайт (93%)
    Основные цвета : BT.709
    Характеристики трансфера : BT.709
    Коэффициенты матрицы : BT.709
    Аудио
    Идентификатор : 192 (0xC0)
    Идентификатор меню : 1 (0x1)
    Формат : MPEG Audio
    Версия формата : Version 1
    Профиль формата : Layer 2
    Идентификатор кодека : 3
    Продолжительность : 1 ч. 25 м.
    Вид битрейта : Постоянный
    Битрейт : 192 Кбит/сек
    Каналы : 2 канала
    Частота : 48,0 КГц
    Метод сжатия : С потерями
    Задержка видео : 16 мс.
    Размер потока : 117 Мбайт (2%)
    Язык : Russian

    Скриншоты для ознакомления

    Релиз подготовил:Rmk80disco
    Залил: Rmk80disco
    Размер скачиваемого торрента: 5.63 GB (6040112504 Bytes)

    Дикие сердца/Our Wild Hearts (2013) HDTV 1080i скачать через торрент бесплатно
    загрузка...
    Рейтинг →
     (голосов: 1, оценка 4/5, голосовать можно 1 раз )

    Другие торренты по теме:

  • BBC: Великий рифт. Дикое сердце Африки / BBC: Great Rift. Africas Wild Heart (2010) BDRip-AVC от -=HD-NET=- торрент скачать бесплатно
  • Дикие сердцем / Wild at Heart (1990) BDRip-AVC от Rulya74 торрент скачать бесплатно
  • Дикие сердцем / Wild at Heart / 1990 / ПМ, СТ / Blu-Ray Remux (1080p) скачать торрент бесплатно


    • Комментарии (0):

      Информация

      Информация

        Посетители, находящиеся в группе Гости, не могут оставлять комментарии в данной новости.

        ↓ Меню



        ↓ Опрос

        А Вы добавили сайт в закладки?
        Да
        Не


        Top 10 за неделю (Фильмы)