.
Авторизация | Регистрация
Хочешь лучшие торренты? Добавь свой email!
Добавить
» » Сеть / The Net (1995) BDRip 1080p от BT-Club скачать через торрент бесплатно




    Сеть / The Net (1995) BDRip 1080p от BT-Club скачать через торрент бесплатно

    Опубликовал: Админ | Дата: 27-02-2015, 11:10 | Просмотров: 198


    Создали в:1995
    Снималось в:США
    Категория жанра:Триллер
    Время просмотра:01:54.19
    Перевод текста:Дублированный, професcиональный многоголосый закадровый, авторский х2
    Субтитры:Русские, украинские, английские
    Главный режиссер:Ирвин Уинклер
    Актеры:Сандра Баллок, Джереми Нортэм, Дэннис Миллер, Дайан Бэйкер, Венди Джизел, Кен Ховард, Рэй МакКиннон, Дэниэл Шорр, Л. Скотт Колдуэлл, Роберт Госсетт
    Качество фильма:BDRip 1080p
    Тип видео:MKV
    Информация о видео:MPEG4-AVC, 1920x1040, ~7000 kbps, 23.976 fps
    Информация о звуке#1AC3, 6ch, 48000 Hz, 384 kbps - дублированный
    Информация о звуке#2AC3, 2ch, 48000 Hz, 192 kbps - многоголосый
    Информация о звуке#3DTS, 6ch, 48000 Hz, 640 kbps - авторский (Живов)
    Информация о звуке#4DTS, 6ch, 48000 Hz, 1510 kbps - авторский (Карцев)
    Информация о звуке#5DTS, 6ch, 48000 Hz, 1510 kbps - оригинал (Английский)
    Субтитры:Русские, украинские, английские
    Сюжет:Как и все мы, Анжела Беннет живет в век информации. Все аспекты ее существования переведены в цифры и занесены в различные компьютерные базы данных: личный идентификационный номер, номер банковского счета, номер страхового свидетельства, номер водительского удостоверения, сведения об отсутствии судимости. Работа Анжелы тоже связана с компьютерами — она программист.
    Существование Анжелы Беннет полностью компьютеризованно. Она не придает этому значения, но однажды ее личность стирают! Гуляя по компьютерной сети, Анжела случайно перебегает дорогу преторианцам. Преторианцами называют себя члены организованной группы хакеров, на счету которых взломы правительственных систем безопасности, биржевые крахи, авиакатастрофы и убийства, совершенные с использованием только одного оружия — всемирной сети интернет. Анжела становится следующей жертвой в списке хакеров.
    Они стирают ее личность и вписывают в биографию Анжелы новое имя и преступное прошлое. Согласно сфабрикованным данным, Анжела — опасная преступница, которая находится в розыске. Она должна найти в себе силы побороть злых компьютерных гениев.
    Скриншоты для ознакомления




    MI
    Имя файла: Net_from_BT-Club_1080p_BDRip_polnik.mkv
    Формат файла: .mkv (Matroska)
    Размер файла: 8.98 GB
    Длительность: 1h 54mn
    Навигация по главам: Есть
    Битрейт (все потоки): 11.2 Mbps
    Файл создан: UTC 2014-08-13 16:00:08
    Создан при помощи: mkvmerge v7.0.0 (;Where We Going;) 32bit built on Jun 9 2014 15:08:34
    Использовалась библиотека: libebml v1.3.0 + libmatroska v1.4.1
    Обложка: Отсутствует
    :
    Название: Net_from_BT-Club_1080p_BDRip_polnik
    :
    Тип потока: Видео
    Длительность: 01:54:18
    Кодек: AVC
    Кодек/описание: Advanced Video Codec
    Кодек/профиль: High@L4.1
    Кодек/ID: V_MPEG4/ISO/AVC
    Кодек/CABAC: Yes
    Кодек/ReFrames: 4 frames
    Размеры изображения: 1920 x 1040 (1.85:1)
    Частота кадров: 23.976 fps
    Частота кадров/тип: Constant
    Размер потока: 5.42 GiB (60%)
    Битрейт: 6 999 Kbps
    Библиотека кодирования: x264 core 142 r2431 ac76440
    Цветовое пространство: YUV
    Тип развёртки: Progressive
    Глубина: 8 bits
    Настройки кодирования: cabac=1/ref=4/deblock=1:0:0/analyse=0x3:0x133/me=tesa/subme=11/psy=1/psy_rd=1.00:0.15/mixed_ref=1/me_range=24/chroma_me=1/trellis=2/8x8dct=1/cqm=0/deadzone=21,11/fast_pskip=0/chroma_qp_offset=-3/threads=12/lookahead_threads=1/sliced_threads=0/nr=100/decimate=1/interlaced=0/bluray_compat=0/constrained_intra=0/bframes=5/b_pyramid=2/b_adapt=2/b_bias=0/direct=3/weightb=1/open_gop=0/weightp=2/keyint=230/keyint_min=22/scenecut=40/intra_refresh=0/rc_lookahead=60/rc=2pass/mbtree=1/bitrate=6999/ratetol=1.0/qcomp=0.60/qpmin=0/qpmax=69/qpstep=4/cplxblur=20.0/qblur=0.5/vbv_maxrate=62500/vbv_bufsize=78125/nal_hrd=none/filler=0/ip_ratio=1.40/aq=1:1.00
    :
    Тип потока: Звук #1
    Язык: Russian
    Название: Дублированный
    Длительность: 01:54:18.912
    Кодек: AC-3
    Кодек/описание: Audio Coding 3
    Кодек/ID: A_AC3
    Частота дискретизации: 48.0 KHz
    Каналов: 6 channels
    Битрейт: 384 Kbps
    Битрейт/тип: Constant
    Размер потока: 314 MiB (3%)
    Глубина: 16 bits
    Метод сжатия: Lossy
    :
    Тип потока: Звук #2
    Язык: Russian
    Название: Закадровый (многоголосый)
    Длительность: 01:54:18.912
    Кодек: AC-3
    Кодек/описание: Audio Coding 3
    Кодек/ID: A_AC3
    Частота дискретизации: 48.0 KHz
    Каналов: 2 channels
    Битрейт: 192 Kbps
    Битрейт/тип: Constant
    Размер потока: 157 MiB (2%)
    Глубина: 16 bits
    Метод сжатия: Lossy
    :
    Тип потока: Звук #3
    Язык: Russian
    Название: авторский (Живов)
    Длительность: 01:54:18.912
    Кодек: AC-3
    Кодек/описание: Audio Coding 3
    Кодек/ID: A_AC3
    Частота дискретизации: 48.0 KHz
    Каналов: 6 channels
    Битрейт: 640 Kbps
    Битрейт/тип: Constant
    Размер потока: 523 MiB (6%)
    Глубина: 16 bits
    Метод сжатия: Lossy
    :
    Тип потока: Звук #4
    Язык: Russian
    Название: авторский (Карцев)
    Длительность: 01:54:18.912
    Кодек: DTS
    Кодек/описание: Digital Theater Systems
    Кодек/ID: A_DTS
    Частота дискретизации: 48.0 KHz
    Каналов: 6 channels
    Битрейт: 1 509 Kbps
    Битрейт/тип: Constant
    Размер потока: 1.20 GiB (13%)
    Глубина: 24 bits
    Метод сжатия: Lossy
    :
    Тип потока: Звук #5
    Язык: English
    Название: Оригинал
    Длительность: 01:54:18.912
    Кодек: DTS
    Кодек/описание: Digital Theater Systems
    Кодек/ID: A_DTS
    Частота дискретизации: 48.0 KHz
    Каналов: 6 channels
    Битрейт: 1 509 Kbps
    Битрейт/тип: Constant
    Размер потока: 1.20 GiB (13%)
    Глубина: 24 bits
    Метод сжатия: Lossy
    :
    Тип потока: Субтитры #1
    Язык: Russian
    Формат: PGS
    Формат/подробно: The same subtitle format used on BDs/HD-DVDs
    Название: Русские
    :
    Тип потока: Субтитры #2
    Язык: Ukrainian
    Формат: PGS
    Формат/подробно: The same subtitle format used on BDs/HD-DVDs
    Название: Украинские
    :
    Тип потока: Субтитры #3
    Язык: English
    Формат: PGS
    Формат/подробно: The same subtitle format used on BDs/HD-DVDs
    Название: Английские
    :
    Тип потока: Меню #1

    Залил: polnik
    Размер скачиваемого торрента: 8.98 GB (9644316247 Bytes)

    Сеть/The Net (1995) BDRip 1080p от BT-Club скачать через торрент бесплатно
    загрузка...
    Рейтинг →
     (голосов: 1, оценка 5/5, голосовать можно 1 раз )

    Другие торренты по теме:

  • Социальная сеть / The Social Network (2010) HDRip от YouTracker
  • Глушакoв С. В., Хачиров Т. С. - Настраиваем сеть своими руками (2008) PDF
  • Социальная сеть / The Social Network (2010) BDRip 1080p
  • Социальная сеть / The Social Network (2010) HDRip от Scarabey | D
  • Пойманные в сеть / Caught in the Web / Sou Suo (2012) DVDRip | L1
  • Социальная сеть / The Social Network (2010) BDRip 720p скачать через торрент бесплатно
  • Гилберт Майкл - Этрусская сеть (2013) MP3 скачать через торрент бесплатно
  • Сеть / The Net (1995) BDRip 1080p


    • Комментарии (0):

      Информация

      Информация

        Посетители, находящиеся в группе Гости, не могут оставлять комментарии в данной новости.

        ↓ Меню



        ↓ Опрос

        А Вы добавили сайт в закладки?
        Да
        Не


        Top 10 за месяц (Фильмы)