.
Авторизация | Регистрация
» » Живи как полицейский, умри как мужчина / Uomini si nasce poliziotti si muore (1976) DVD-9 скачать через торрент бесплатно




    Живи как полицейский, умри как мужчина / Uomini si nasce poliziotti si muore (1976) DVD-9 скачать через торрент бесплатно

    Опубликовал: Админ | Дата: 27-02-2015, 11:10 | Просмотров: 194


    Детально о киноЖиви как полицейский, умри как мужчина
    Русское название:
    Русское название в мировом прокате:Uomini si nasce poliziotti si muore
    Создали в:1976
    Категория жанра:Триллер
    Главный режиссер:Руджеро Деодато
    Актеры:Марк Порель, Рэй Лавлок, Адольфо Чели, Франко Читти, Сильвия Дионизио, Марино Масе, Ренато Сальватори, Серджо Аммирата, Бруно Кораццари, Даниэле Дублино
    Сюжет фильма:Работники спецотряда полиции Альфредо и Антонио — самая настоящая гроза преступного мира: они не используют наручники, они не зачитывают права. Когда они получают задание задержать преступников, они просто приканчивают их и ждут нового задания… После убийства их коллеги, который был близок к поимке гангстера Роберто Паскуини по кличке Биби, они объявляют войну банде злоумышленников…

    Снималось в:Италия
    Киностудия:Centro Produzioni Cinematografiche Citt? di Milano
    Время просмотра:01:29:41
    Перевод текста:Профессиональный одноголосый
    Субтитры:Английские
    Файл
    Кодек для видео:MPEG-2
    Качество фильма:DVD-9
    Информация о видео:PAL 4:3 (720x576) VBR
    Информация о звуке:Русский (Dolby AC3, 6 ch), английский, итальянский (Dolby AC3, 2 ch)
    Меню
    DVDInfo
    Title: Локальный диск
    Size: 7.48 Gb ( 7 839 410 KBytes ) - DVD-9
    Enabled regions: 1, 2, 3, 4, 5, 6, 7, 8
    VTS_01 :
    Play Length: 01:29:41
    Video: PAL 4:3 (720x576) VBR
    Audio:
    Italiano (Dolby AC3, 2 ch)
    English (Dolby AC3, 2 ch)
    Russian (Dolby AC3, 6 ch)
    Subtitles:
    English
    VTS_02 :
    Play Length: 00:40:15
    Video: PAL 4:3 (720x576) VBR
    Audio:
    Italiano (Dolby AC3, 2 ch)
    English (Dolby AC3, 2 ch)
    Russian (Dolby AC3, 6 ch)
    Subtitles:
    English
    VTS_03 :
    Play Length: 00:20:13
    Video: PAL 4:3 (352x576) VBR
    Audio:
    Italiano (Dolby AC3, 2 ch)
    English (Dolby AC3, 2 ch)
    Russian (Dolby AC3, 2 ch)
    Menu Video:
    PAL 4:3 (720x576) VBR
    Menu Audio:
    Not specified (Dolby AC3, 2 ch)
    Menu Subtitles:
    Not specified
    Menu English Language Unit :
    Root Menu
    MediaInfo
    Общее
    Полное имя : E:1АААЖИВИ КАК КОП УМРИ КАК МУЖЧИНАVIDEO_TSVTS_01_1.VOB
    Формат : MPEG-PS
    Размер файла : 1024 Мбайт
    Продолжительность : 18 м.
    Режим общего битрейта : Переменный
    Общий поток : 7598 Кбит/сек
    Видео
    Идентификатор : 224 (0xE0)
    Формат : MPEG Video
    Версия формата : Version 2
    Профиль формата : Main@Main
    Параметр BVOP формата : Да
    Параметр матрицы формата : По умолчанию
    Параметр GOP формата : M=3, N=13
    Продолжительность : 18 м.
    Вид битрейта : Переменный
    Битрейт : 6614 Кбит/сек
    Максимальный битрейт : 8500 Кбит/сек
    Ширина : 720 пикселей
    Высота : 576 пикселей
    Соотношение сторон : 4:3
    Частота кадров : 25,000 кадров/сек
    Стандарт вещания : PAL
    Цветовое пространство : YUV
    Субдискретизация насыщенности : 4:2:0
    Битовая глубина : 8 бит
    Тип развёртки : Чересстрочная
    Порядок развёртки : Верхнее поле первое
    Метод сжатия : С потерями
    Бит/(Пиксели*Кадры) : 0.638
    TimeCode_FirstFrame : 10:00:00:00
    TimeCode_Source : Group of pictures t_head
    Размер потока : 891 Мбайт (87%)
    Основные цвета : BT.601 PAL
    Характеристики трансфера : BT.470 System B, BT.470 System G
    Коэффициенты матрицы : BT.601
    Аудио #1
    Идентификатор : 189 (0xBD)-128 (0x80)
    Формат : AC-3
    Формат/Информация : Audio Coding 3
    Расширение режима : CM (complete main)
    Параметр Endianness формата : Big
    Режим смешивания : DVD-Video
    Продолжительность : 18 м.
    Вид битрейта : Постоянный
    Битрейт : 192 Кбит/сек
    Каналы : 2 канала
    Расположение каналов : Front: L R
    Частота : 48,0 КГц
    Битовая глубина : 16 бит
    Метод сжатия : С потерями
    Размер потока : 25,9 Мбайт (3%)
    Аудио #2
    Идентификатор : 189 (0xBD)-129 (0x81)
    Формат : AC-3
    Формат/Информация : Audio Coding 3
    Расширение режима : CM (complete main)
    Параметр Endianness формата : Big
    Режим смешивания : DVD-Video
    Продолжительность : 18 м.
    Вид битрейта : Постоянный
    Битрейт : 192 Кбит/сек
    Каналы : 2 канала
    Расположение каналов : Front: L R
    Частота : 48,0 КГц
    Битовая глубина : 16 бит
    Метод сжатия : С потерями
    Размер потока : 25,9 Мбайт (3%)
    Аудио #3
    Идентификатор : 189 (0xBD)-130 (0x82)
    Формат : AC-3
    Формат/Информация : Audio Coding 3
    Расширение режима : CM (complete main)
    Параметр Endianness формата : Big
    Режим смешивания : DVD-Video
    Продолжительность : 18 м.
    Вид битрейта : Постоянный
    Битрейт : 448 Кбит/сек
    Каналы : 6 каналов
    Расположение каналов : Front: L C R, Side: L R, LFE
    Частота : 48,0 КГц
    Битовая глубина : 16 бит
    Метод сжатия : С потерями
    Размер потока : 60,4 Мбайт (6%)
    Текст
    Идентификатор : 189 (0xBD)-32 (0x20)
    Формат : RLE
    Формат/Информация : Run-length encoding
    Режим смешивания : DVD-Video
    Меню
    Скриншоты для ознакомления

    Залил: YArl
    Размер скачиваемого торрента: 7.48 GB (8027555840 Bytes)

    Живи как полицейский, умри как мужчина/Uomini si nasce poliziotti si muore (1976) DVD-9 скачать через торрент бесплатно
    загрузка...
    Рейтинг →
     (голосов: 1, оценка 5/5, голосовать можно 1 раз )

    Другие торренты по теме:

  • Как я теперь живу / Как я теперь люблю / How I Live Now (2013) BDRip 720p от CINEMANIA | А.Матвеев скачать через торрент бесплатно
  • Как я теперь живу / Как я теперь люблю / How I Live Now (2013) BDRip 1080p от CINEMANIA | А.Матвеев скачать через торрент бесплатно
  • Как я теперь живу / Как я теперь люблю / How I Live Now (2013) HDRip от Scarabey | А.Матвеев скачать через торрент бесплатно
  • Как я теперь живу / Как я теперь люблю / How I Live Now (2013) BDRip 1080p от CINEMANIA | P, A торрент скачать бесплатно
  • Как я теперь живу / Как я теперь люблю / How I Live Now (2013) BDRip 720p от CINEMANIA | P, A торрент скачать бесплатно
  • Как я теперь живу / Как я теперь люблю / How I Live Now (2013) BDRip 720p от Leonardo and Scarabey | Лицензия скачать через торрент бесплатно
  • Живи как полицейский, умри как мужчина / Uomini si nasce poliziotti si muore (1976) HDRip от Koenig | A скачать торрент бесплатно
  • Как я теперь люблю / Как я теперь живу / How I Live Now (2013) WEB-DLRip-AVC | L1 скачать через торрент бесплатно


    • Комментарии (0):

      Информация

      Информация

        Посетители, находящиеся в группе Гости, не могут оставлять комментарии в данной новости.

        ↓ Меню



        ↓ Опрос

        А Вы добавили сайт в закладки?
        Да
        Не


        Top 10 за неделю (Фильмы)