.
Авторизация | Регистрация
Хочешь лучшие торренты? Добавь свой email!
Добавить
» » Сердце героя / 25 Hill aka Heart of a Hero (2011) HDTV 1080i | P скачать через торрент бесплатно




    Сердце героя / 25 Hill aka Heart of a Hero (2011) HDTV 1080i | P скачать через торрент бесплатно

    Опубликовал: Админ | Дата: 27-02-2015, 11:10 | Просмотров: 194


    Детально о кино
    Русское название:Сердце героя
    Русское название в мировом прокате:25 Hill aka Heart of a Hero
    Создали в:2011
    Категория жанра:Драма
    Главный режиссер:Корбин Бернсен
    Актеры:Нэйтан Гэмбл, Тимоти Омандсон, Морин Флэннигэн, Ronal Fergeson, Уинстон Ау, Кен МакДональд, Ролонда Уоттс, Cathy Kondik, James Greilick, Корбин Бернсен
    Сюжет фильма:
    Юный Трой, чей отец, военный, погиб, знакомится с Роем Гиббсом, сын которого также героически отдал жизнь, выполняя спасательную операцию на службе в 911. Им предстоит совместный путь преодоления своего горя.

    Снималось в:CША
    Время просмотра:01:43:31
    Перевод текста:Профессиональный многоголосый закадровый
    Файл
    Кодек для видео:H.264
    Качество фильма:HDTV 1080i
    Информация о видео:1920x1080 (16:9), 9057 Кбит/сек, 25.000 fps
    Информация о звуке:русский, MP-2, 48000 Hz, 192 Кбит/сек, 2 ch
    Субтитры:нет
    Семпл
    MediaInfo

    Видео
    Идентификатор : 224 (0xE0)
    Идентификатор меню : 1 (0x1)
    Формат : AVC
    Формат/Информация : Advanced Video Codec
    Профиль формата : High@L4.1
    Параметр CABAC формата : Да
    Параметр ReFrames формата : 3 кадра
    Идентификатор кодека : 27
    Продолжительность : 1 ч. 43 м.
    Вид битрейта : Постоянный
    Битрейт : 9106 Кбит/сек
    Ширина : 1920 пикселей
    Высота : 1080 пикселей
    Соотношение сторон : 16:9
    Частота кадров : 25,000 кадров/сек
    Стандарт вещания : PAL
    Цветовое пространство : YUV
    Субдискретизация насыщенности : 4:2:0
    Битовая глубина : 8 бит
    Тип развёртки : Чересстрочная
    Порядок развёртки : Верхнее поле первое
    Бит/(Пиксели*Кадры) : 0.176
    Размер потока : 6,46 Гбайт (93%)
    Основные цвета : BT.709
    Характеристики трансфера : BT.709
    Коэффициенты матрицы : BT.709
    Аудио
    Идентификатор : 192 (0xC0)
    Идентификатор меню : 1 (0x1)
    Формат : MPEG Audio
    Версия формата : Version 1
    Профиль формата : Layer 2
    Идентификатор кодека : 3
    Продолжительность : 1 ч. 43 м.
    Вид битрейта : Постоянный
    Битрейт : 192 Кбит/сек
    Каналы : 2 канала
    Частота : 48,0 КГц
    Метод сжатия : С потерями
    Задержка видео : 8 мс.
    Размер потока : 142 Мбайт (2%)
    Язык : Russian

    Скриншоты для ознакомления

    Релиз подготовил:Rmk80disco
    Залил: Rmk80disco
    Размер скачиваемого торрента: 6.95 GB (7458707300 Bytes)

    Сердце героя/25 Hill aka Heart of a Hero (2011) HDTV 1080i | P скачать через торрент бесплатно
    загрузка...
    Рейтинг →
     (голосов: 1, оценка 4/5, голосовать можно 1 раз )

    Другие торренты по теме:

  • Сердце Шивы / Шакти в сердце Шивы / Siva Manasula Sakthi (2009) SATRip от Files-x | P
  • Зои Харт из южного штата / Сердце Дикси / Hart of Dixie (2012) WEBDLRip | To4ka
  • Михаил Булгаков - Собачье сердце. Повести и рассказы (2005) MP3
  • Fah - Русское сердце (2012) МР3
  • Ангел в сердце (2012) HDTV 1080i
  • Ангел в сердце (2012) SATRip
  • Ангел в сердце (2012) HDTVRip от Getty
  • Храброе сердце / Braveheart (1995) HDRip-AVC | D


    • Комментарии (0):

      Информация

      Информация

        Посетители, находящиеся в группе Гости, не могут оставлять комментарии в данной новости.

        ↓ Меню



        ↓ Опрос

        А Вы добавили сайт в закладки?
        Да
        Не


        Top 10 за месяц (Фильмы)