.
Авторизация | Регистрация
Хочешь лучшие торренты? Добавь свой email!
Добавить
» » Гориллы в тумане / Gorillas in the Mist: The Story of Dian Fossey (1988) HDRip-AVC | iPhone | D торрент скачать бесплатно




    Гориллы в тумане / Gorillas in the Mist: The Story of Dian Fossey (1988) HDRip-AVC | iPhone | D торрент скачать бесплатно

    Опубликовал: Админ | Дата: 27-02-2015, 11:10 | Просмотров: 229


    Гориллы в тумане/Gorillas in the Mist: The Story of Dian Fossey (1988) HDRip-AVC | iPhone | D
    She left everything she knew and entered a world few have ever seen. To save a wonderous creature from the cruelty of men, she went further than anyone dared. Some say she went too far
    Русское название:Гориллы в тумане
    Русское название в мировом прокате:Gorillas in the Mist: The Story of Dian Fossey
    Создали в:1988
    Категория жанра:драма, биография
    Главный режиссер:Майкл Аптед
    Актеры:У Цзян, Ланьшань Ло, Ли Мэн, Ван Баоцян, Цзяи Чжан, Чжао Тао
    Сюжет фильма:
    Эта женщина выбрала одинокую и трудную жизнь среди дикой природы, посвятив себя изучению исчезающих животных. В одиночку она отправляется в Центральную Африку, где в стране, полной красот, чудес и опасностей, следует за своей мечтой, любит и рискует жизнью, спасая горных горилл от человеческой жестокости.
    Автобиография Дайан Фосси — драматическая хроника ее бродячей жизни и замечательных открытий, которые удивили мир.

    Снималось в:США
    Киностудия:Universal Pictures, Warner Bros.
    Время просмотра:02:09:18
    Перевод текста:Русский дублированный
    Файл
    Кодек для видео:H.264
    Качество фильма:HDRip-AVC 480p
    Информация о видео:640x464@852x464 (1.85:1) at 23.976 fps, AVC at 1800 kbps
    Информация о звуке:
    1: АAС 2.0 114 kbps - Русский дублированный (ВАРУС-ВИДЕО)
    2: АAС 2.0 135 kbps - Английский
    Субтитры:Английский (SDH)
    MI

    General
    Complete name : I:modoutGorillas.in.the.Mist.1988.480p.D.m4v
    Format : MPEG-4
    Codec ID : M4V
    File size : 1.86 GiB
    Duration : 2h 9mn
    Overall bit rate mode : Variable
    Overall bit rate : 2 058 Kbps
    Movie name : Гориллы в тумане
    Performer : Michael Apted
    Genre : Drama
    ContentType : Short Film
    Deion : Эта женщина выбрала одинокую и трудную жизнь среди дикой природы, посвятив себя изучению исчезающих животных. В одиночку она отправляется в Центральную Африку, где в стране, полной красот, чудес и опасностей, следует за своей мечтой, любит и рискует
    Recorded date : UTC 1988-09-23 08:00:00
    Encoded date : UTC 2014-08-17 17:14:00
    Tagged date : UTC 2014-08-17 17:47:43
    Copyright : Universal Pictures, Warner Bros.
    Cover : Yes
    Comment : She left everything she knew and entered a world few have ever seen. To save a wonderous creature from the cruelty of men, she went further than anyone dared. Some say she went too far
    ContentRating : mpaa|PG-13|300|
    Title/Sort : Gorillas in the Mist: The Story of Dian Fossey
    LongDeion : Эта женщина выбрала одинокую и трудную жизнь среди дикой природы, посвятив себя изучению исчезающих животных. В одиночку она отправляется в Центральную Африку, где в стране, полной красот, чудес и опасностей, следует за своей мечтой, любит и рискует жизнью, спасая горных горилл от человеческой жестокости. Автобиография Дайан Фосси — драматическая хроника ее бродячей жизни и замечательных открытий, которые удивили мир.
    AppleStoreCatalogID : 3941
    Vendor : Apple:vendor_id:1988-3941
    Video
    ID : 1
    Format : AVC
    Format/Info : Advanced Video Codec
    Format profile : Baseline@L3.0
    Format settings, CABAC : No
    Format settings, ReFrames : 2 frames
    Codec ID : avc1
    Codec ID/Info : Advanced Video Coding
    Duration : 2h 9mn
    Bit rate : 1 800 Kbps
    Maximum bit rate : 7 044 Kbps
    Width : 640 pixels
    Height : 464 pixels
    Display aspect ratio : 1.85:1
    Frame rate mode : Constant
    Frame rate : 23.976 fps
    Color space : YUV
    Chroma subsampling : 4:2:0
    Bit depth : 8 bits
    Scan type : Progressive
    Bits/(Pixel*Frame) : 0.253
    Stream size : 1.63 GiB (87%)
    Title : Gorillas.in.the.Mist.1988
    Language : English
    Encoded date : UTC 2014-08-17 17:14:00
    Tagged date : UTC 2014-08-17 17:14:37
    Matrix coefficients : BT.709
    Audio #1
    ID : 2
    Format : AAC
    Format/Info : Advanced Audio Codec
    Format profile : LC
    Codec ID : 40
    Duration : 2h 9mn
    Bit rate mode : Variable
    Bit rate : 114 Kbps
    Maximum bit rate : 152 Kbps
    Channel(s) : 2 channels
    Channel positions : Front: L R
    Sampling rate : 48.0 KHz
    Compression mode : Lossy
    Stream size : 105 MiB (6%)
    Title : DUB Varus_Video
    Language : Russian
    Encoded date : UTC 2014-08-17 17:02:08
    Tagged date : UTC 2014-08-17 17:14:37
    Audio #2
    ID : 3
    Format : AAC
    Format/Info : Advanced Audio Codec
    Format profile : LC
    Codec ID : 40
    Duration : 2h 9mn
    Bit rate mode : Variable
    Bit rate : 135 Kbps
    Maximum bit rate : 192 Kbps
    Channel(s) : 2 channels
    Channel positions : Front: L R
    Sampling rate : 48.0 KHz
    Compression mode : Lossy
    Stream size : 125 MiB (7%)
    Language : English
    Encoded date : UTC 2014-08-17 17:09:29
    Tagged date : UTC 2014-08-17 17:14:37
    Text
    ID : 4
    Format : Timed Text
    Muxing mode : sbtl
    Codec ID : tx3g
    Duration : 2h 4mn
    Bit rate mode : Variable
    Bit rate : 40 bps
    Stream size : 36.5 KiB (0%)
    Title : SDH
    Language : English
    Encoded date : UTC 2014-08-17 17:14:37
    Tagged date : UTC 2014-08-17 17:14:37
    Menu
    ID : 5
    Codec ID : text
    Duration : 2h 9mn
    Encoded date : UTC 2014-08-17 17:15:19
    Tagged date : UTC 2014-08-17 17:15:19
    Bit rate mode : CBR
    iTunes tags

    Sort Name: Gorillas in the Mist: The Story of Dian Fossey
    XID: Apple:vendor_id:1988-3941
    Content ID: 3941
    Copyright: Universal Pictures, Warner Bros.
    ScreenWriters: Харольд Т.П. Хэйес, Дайн Фосси, Анна Хэмилтон Фелан
    Producers: Теренс А. Клегг, Арн Глимчер, Рик Бэйкер
    Director: Майкл Эптед
    Cast: Сигурни Уивер, Брайан Браун, Джули Харрис, Джон Омира Милуви, Айэйн Катбертсон, Константин Александров, Вайгва Вачира, Айэйн Глен, Дэвид Лэнсбери, Мэгги О’Нил // Sigourney Weaver (Dian Fossey), Bryan Brown (Bob Campbell), Julie Harris (Roz Carr), John Omirah Miluwi (Sembagare), Iain Cuthbertson (Dr. Louis Leakey)
    Rating: PG-13
    Long Deion: Эта женщина выбрала одинокую и трудную жизнь среди дикой природы, посвятив себя изучению исчезающих животных. В одиночку она отправляется в Центральную Африку, где в стране, полной красот, чудес и опасностей, следует за своей мечтой, любит и рискует жизнью, спасая горных горилл от человеческой жестокости. Автобиография Дайан Фосси — драматическая хроника ее бродячей жизни и замечательных открытий, которые удивили мир.
    Deion: Эта женщина выбрала одинокую и трудную жизнь среди дикой природы, посвятив себя изучению исчезающих животных. В одиночку она отправляется в Центральную Африку, где в стране, полной красот, чудес и опасностей, следует за своей мечтой, любит и рискует
    Release Date: 1988-09-23T08:00:00Z
    Genre: Drama
    Artist: Michael Apted
    Name: Гориллы в тумане
    Comments: She left everything she knew and entered a world few have ever seen. To save a wonderous creature from the cruelty of men, she went further than anyone dared. Some say she went too far
    x264

    x264 info: frame I:2405 Avg QP:20.50 size: 41501
    x264 info: frame P:183605 Avg QP:22.60 size: 8963
    x264 info: mb I I16..4: 23.9% 0.0% 76.1%
    x264 info: mb P I16..4: 0.7% 0.0% 1.3% P16..4: 57.8% 19.3% 10.6% 1.5% 0.6% skip: 8.1%
    x264 info: coded y,uvDC,uvAC intra: 67.2% 83.8% 47.4% inter: 43.2% 49.8% 14.3%
    x264 info: i16 v,h,dc,p: 36% 12% 11% 41%
    x264 info: i4 v,h,dc,ddl,ddr,vr,hd,vl,hu: 23% 11% 16% 8% 10% 11% 7% 9% 5%
    x264 info: i8c dc,h,v,p: 56% 13% 23% 8%
    x264 info: ref P L0: 81.6% 18.4%
    x264 info: kb/s:1799.80
    Screenshots



    Залил: gekka
    Размер скачиваемого торрента: 1.86 GB (1995759510 Bytes)

    Гориллы в тумане/Gorillas in the Mist: The Story of Dian Fossey (1988) HDRip-AVC | iPhone | D торрент скачать бесплатно
    загрузка...
    Рейтинг →
     (голосов: 1, оценка 3/5, голосовать можно 1 раз )

    Другие торренты по теме:



      Комментарии (0):

      Информация

      Информация

        Посетители, находящиеся в группе Гости, не могут оставлять комментарии в данной новости.

        ↓ Меню



        ↓ Опрос

        А Вы добавили сайт в закладки?
        Да
        Не


        Top 10 за месяц (Фильмы)