.
Авторизация | Регистрация
» » Дежурный папа / Daddy Day Care (2003) HDTVRip от New-Team | D скачать через торрент бесплатно




    Дежурный папа / Daddy Day Care (2003) HDTVRip от New-Team | D скачать через торрент бесплатно

    Опубликовал: Админ | Дата: 27-02-2015, 11:10 | Просмотров: 203

    D-Day Is Coming

    Снималось в: США/Davis Entertainment, Day Care Productions, Revolution Studios
    Категория жанра: комедия, семейный
    Создали в: 2003
    Время просмотра: 01:32:30
    Перевод текста:Профессиональный (дублированный)
    Субтитры подготовлены: нет
    Оригинальная аудиодорожка: нет
    Главный режиссер: Стив Карр/Steve Carr
    Актеры: Эдди Мёрфи, Стив Зан, Джефф Гарлин, Реджина Кинг, Анжелика Хьюстон, Кевин Нилон, Джонатан Кац, Шиван Фэллон, Лиза Эдельштейн, Лейси Чаберт...
    Роли дублировали: Вадим Гущин, Владимир Маслаков, Сергей Паршин, Елена Шульман, Галина Чигинская...
    Сюжет: Чарли и Фила увольняют с работы в крупной корпорации. Теперь им самим придётся сидеть со своими сыновьями, так как оплачивать счета дорогостоящего детского центра уже не на что. Промучившись пару недель со своими отпрысками, папаши так увлекаются этим делом, что решают поставить дело на деловые рельсы и открывают новый центр дневного пребывания для детей.
    Чарли и Филл находят всё новые и новые нетрадиционные и забавные способы воспитательного воздействия на малышей, и центр Дежурный папа становится всё более популярным. Почувствовав жёсткое соперничество со стороны усатых няней, директриса дорогого детского центра решает выжить конкурентов-новичков из бизнеса.

    Качество фильма: HDTVRip/Daddy.Day.Care.(2003).1080i.HDTV.4xRus.Eng.HDCLUB.mkv
    Тип видео: AVI
    Информация о видео: 720x400 (16:9), XviD 1799 Кбит/сек/23.976 fps/Бит/(Пиксели*Кадры) : 0.261
    Информация о звуке: Russian: 48 kHz, AC3, 3/2 (L,C,R,l,r) + LFE ch, ~448.00 kbps avg
    Тип видео субтитров: SoftSub (srt)
    Раздача от:
    MediaInfo

    Общее
    Полное имя : Dejurnyi.papa.2003.D.HDTVRip_New-Team_by_avproh.avi
    Формат : AVI
    Формат/Информация : Audio Video Interleave
    Размер файла : 1,46 Гбайт
    Продолжительность : 1 ч. 32 м.
    Общий поток : 2256 Кбит/сек
    Программа кодирования : VirtualDubModRus 1.5.10.2 (build 2542/release)
    Библиотека кодирования : VirtualDubMod build 2542/release
    Видео
    Идентификатор : 0
    Формат : MPEG-4 Visual
    Профиль формата : Advanced Simple@L5
    Параметр BVOP формата : 1
    Параметр QPel формата : Нет
    Параметр GMC формата : Без точки перехода
    Параметр матрицы формата : Выборочная
    Идентификатор кодека : XVID
    Идентификатор кодека/Подсказка : XviD
    Продолжительность : 1 ч. 32 м.
    Битрейт : 1799 Кбит/сек
    Ширина : 720 пикселей
    Высота : 400 пикселей
    Соотношение сторон : 16:9
    Частота кадров : 23,976 кадра/сек
    Цветовое пространство : YUV
    Субдискретизация насыщенности : 4:2:0
    Битовая глубина : 8 бит
    Тип развёртки : Прогрессивная
    Метод сжатия : С потерями
    Бит/(Пиксели*Кадры) : 0.261
    Размер потока : 1,16 Гбайт (80%)
    Библиотека кодирования : XviD 73
    Аудио
    Идентификатор : 1
    Формат : AC-3
    Формат/Информация : Audio Coding 3
    Расширение режима : CM (complete main)
    Параметр Endianness формата : Big
    Идентификатор кодека : 2000
    Продолжительность : 1 ч. 32 м.
    Вид битрейта : Постоянный
    Битрейт : 448 Кбит/сек
    Каналы : 6 каналов
    Расположение каналов : Front: L C R, Side: L R, LFE
    Частота : 48,0 КГц
    Битовая глубина : 16 бит
    Метод сжатия : С потерями
    Размер потока : 296 Мбайт (20%)
    Выравнивание : Разделение по промежуткам
    Продолжительность промежутка : 42 мс. (1,00 видеокадр)
    Время предзагрузки промежутка : 500 мс.

    Скриншоты для ознакомления:



    Размер скачиваемого торрента: 1.46 GB (1564995590 Bytes)

    Дежурный папа/Daddy Day Care (2003) HDTVRip от New-Team | D скачать через торрент бесплатно
    загрузка...
    Рейтинг →
     (голосов: 1, оценка 4/5, голосовать можно 1 раз )

    Другие торренты по теме:

  • Вести. Дежурная часть. Итоговый выпуск (2013) SATRip торрент скачать бесплатно
  • Вести. Вести Москва Дежурная часть (2013) IPTV торрент скачать бесплатно
  • Вести. Вести Москва Дежурная часть Честный детектив (2013) IPTV торрент скачать бесплатно
  • Вести. Вести Москва Дежурная часть (2013) IPTV торрент скачать бесплатно
  • Вести. Вести Москва Дежурная часть (2013) IPTV торрент скачать бесплатно
  • Вести. Дежурная часть (2013) IPTV торрент скачать бесплатно
  • Вести. Вести Москва Дежурная часть 11.00 (2013) IPTV торрент скачать бесплатно
  • Вести. Вести Москва Дежурная часть Честный детектив 11.00 (2013) IPTV торрент скачать бесплатно


    • Комментарии (0):

      Информация

      Информация

        Посетители, находящиеся в группе Гости, не могут оставлять комментарии в данной новости.

        ↓ Меню



        ↓ Опрос

        А Вы добавили сайт в закладки?
        Да
        Не


        Top 10 за неделю (Фильмы)