.
Авторизация | Регистрация
Хочешь лучшие торренты? Добавь свой email!
Добавить
» » Через край / За гранью / Over the Edge (1979) DVD-5 скачать через торрент бесплатно




    Через край / За гранью / Over the Edge (1979) DVD-5 скачать через торрент бесплатно

    Опубликовал: Админ | Дата: 27-02-2015, 11:10 | Просмотров: 178


    Детально о кино
    Русское название:Через край/За гранью
    Русское название в мировом прокате:Over the Edge
    Создали в:1979
    Категория жанра:Драма, криминал
    Главный режиссер:Джонатан Каплан
    Актеры:Майкл Эрик Крамер, Мэтт Диллон, Памела Людвиг, Винсент Спано, Том Фергус, Гарри Нортап, Энди Романо, Эллен Гир, Ричард Джеймисон, Джулия Померой, Тайгер Томпсон, Ким Клинер, Фрэнк Мугаверо, Кристина Хэнсон
    Сюжет фильма:Основанная на реальных событиях история о разгуле подросткового вандализма, разворачивающаяся в 70-х в американском городке Нью-Гранада. В поисках адреналина подростки совсем забросили учебу, курят травку, тусуются на домашних вечеринках, палят из ружья по полицейским машинам и рвутся за рамки законов и приличий. Полиция, в лице копа с красноречивой фамилией Доберман, пытается бороться с подростковым беспределом. Среди школьников зреет волна протеста, которая охватывает весь городок. Будут жертвы...

    Снималось в:США
    Киностудия:Orion Pictures Corporation
    Время просмотра:01:34:52
    Перевод текста:Профессиональный двухголосый
    Субтитры:Русские, английские
    Файл
    Кодек для видео:MPEG-2
    Качество фильма:DVD-5
    Информация о видео:PAL 16:9 (720x576) VBR
    Информация о звуке:Русский (Dolby AC3, 6 ch), английский (Dolby AC3, 2 ch)
    Меню
    DVDInfo
    Title: DATA
    Size: 4.36 Gb ( 4 576 468 KBytes ) - DVD-5
    Enabled regions: 1, 2, 3, 4, 5, 6, 7, 8
    VTS_01 :
    Play Length: 00:00:01
    Video: PAL 4:3 (720x576) VBR
    Audio:
    Russian (Dolby AC3, 2 ch)
    Subtitles:
    Russian
    Francais
    Espanol
    VTS_02 :
    Play Length:
    Video: PAL 4:3 (720x576) VBR
    Audio:
    Russian (Dolby AC3, 2 ch)
    Subtitles:
    English
    English
    English
    VTS_03 :
    Play Length: 01:34:52
    Video: PAL 4:3 (720x576) VBR
    Audio:
    Russian (Dolby AC3, 6 ch)
    English (Dolby AC3, 2 ch)
    Subtitles:
    Russian
    English
    English
    VTS_04 :
    Play Length: 00:00:01
    Video: PAL 4:3 (720x576) VBR
    Audio:
    Russian (Dolby AC3, 2 ch)
    Russian (Dolby AC3, 2 ch)
    Subtitles:
    English
    English
    English
    VTS_05 :
    Play Length: 00:00:01
    Video: PAL 4:3 (720x576) VBR
    Audio:
    Russian (Dolby AC3, 2 ch)
    Russian (Dolby AC3, 2 ch)
    Subtitles:
    English
    English
    English
    VTS_06 :
    Play Length: 00:00:01
    Video: PAL 4:3 (720x576) VBR
    Audio:
    Russian (Dolby AC3, 2 ch)
    Russian (Dolby AC3, 2 ch)
    Subtitles:
    Russian
    Francais
    Espanol
    VTS_07 :
    Play Length: 00:00:01
    Video: PAL 4:3 (720x576) VBR
    Audio:
    Russian (Dolby AC3, 2 ch)
    Russian (Dolby AC3, 2 ch)
    Subtitles:
    Russian
    Francais
    Espanol
    VTS_08 :
    Play Length: 00:00:01
    Video: PAL 4:3 (720x576) VBR
    Audio:
    Russian (Dolby AC3, 2 ch)
    Russian (Dolby AC3, 2 ch)
    Subtitles:
    Russian
    Francais
    Espanol
    VTS_09 :
    Play Length: 00:00:01
    Video: PAL 4:3 (720x576) VBR
    Audio:
    Russian (Dolby AC3, 2 ch)
    Russian (Dolby AC3, 2 ch)
    Subtitles:
    Russian
    Francais
    Espanol
    VTS_10 :
    Play Length: 00:00:01
    Video: PAL 4:3 (720x576) VBR
    Audio:
    Russian (Dolby AC3, 2 ch)
    Russian (Dolby AC3, 2 ch)
    Subtitles:
    Russian
    Francais
    Espanol
    VTS_11 :
    Play Length: 00:00:01
    Video: PAL 16:9 (720x576) VBR, Auto PanScan
    Audio:
    Russian (Dolby AC3, 2 ch)
    Russian (Dolby AC3, 2 ch)
    Subtitles:
    English
    English
    English
    VTS_12 :
    Play Length: 00:00:01
    Video: PAL 16:9 (720x576) VBR, Auto PanScan
    Audio:
    Russian (Dolby AC3, 2 ch)
    Russian (Dolby AC3, 2 ch)
    Subtitles:
    Russian
    Francais
    Espanol
    VTS_13 :
    Play Length: 00:00:01
    Video: PAL 4:3 (720x576) VBR
    Audio:
    Russian (Dolby AC3, 2 ch)
    Russian (Dolby AC3, 2 ch)
    Subtitles:
    Russian
    Francais
    Espanol
    Menu Video:
    NTSC 4:3 (720x480) VBR
    Auto PanScan, Auto Letterboxed
    Menu English Language Unit :
    Root Menu
    Audio Menu
    MediaInfo
    Общее
    Полное имя : D:залитьЧерез крайVIDEO_TSVTS_03_1.VOB
    Формат : MPEG-PS
    Размер файла : 1024 Мбайт
    Продолжительность : 21 м.
    Режим общего битрейта : Переменный
    Общий поток : 6603 Кбит/сек
    Видео
    Идентификатор : 224 (0xE0)
    Формат : MPEG Video
    Версия формата : Version 2
    Профиль формата : Main@Main
    Параметр BVOP формата : Да
    Параметр матрицы формата : Выборочная
    Параметр GOP формата : M=3, N=12
    Продолжительность : 21 м.
    Вид битрейта : Переменный
    Битрейт : 5895 Кбит/сек
    Максимальный битрейт : 7993 Кбит/сек
    Ширина : 720 пикселей
    Высота : 576 пикселей
    Соотношение сторон : 4:3
    Частота кадров : 25,000 кадров/сек
    Стандарт вещания : PAL
    Цветовое пространство : YUV
    Субдискретизация насыщенности : 4:2:0
    Битовая глубина : 8 бит
    Тип развёртки : Чересстрочная
    Порядок развёртки : Нижнее поле первое
    Метод сжатия : С потерями
    Бит/(Пиксели*Кадры) : 0.569
    TimeCode_FirstFrame : 00:00:00:00
    TimeCode_Source : Group of pictures t_head
    Размер потока : 914 Мбайт (89%)
    Основные цвета : BT.601 PAL
    Характеристики трансфера : BT.470 System B, BT.470 System G
    Коэффициенты матрицы : BT.601
    Аудио #1
    Идентификатор : 189 (0xBD)-128 (0x80)
    Формат : AC-3
    Формат/Информация : Audio Coding 3
    Расширение режима : CM (complete main)
    Параметр Endianness формата : Big
    Режим смешивания : DVD-Video
    Продолжительность : 21 м.
    Вид битрейта : Постоянный
    Битрейт : 384 Кбит/сек
    Каналы : 6 каналов
    Расположение каналов : Front: L C R, Side: L R, LFE
    Частота : 48,0 КГц
    Битовая глубина : 16 бит
    Метод сжатия : С потерями
    Размер потока : 59,5 Мбайт (6%)
    Аудио #2
    Идентификатор : 189 (0xBD)-129 (0x81)
    Формат : AC-3
    Формат/Информация : Audio Coding 3
    Расширение режима : CM (complete main)
    Параметр Endianness формата : Big
    Режим смешивания : DVD-Video
    Продолжительность : 21 м.
    Вид битрейта : Постоянный
    Битрейт : 192 Кбит/сек
    Каналы : 2 канала
    Расположение каналов : Front: L R
    Частота : 48,0 КГц
    Битовая глубина : 16 бит
    Метод сжатия : С потерями
    Размер потока : 29,8 Мбайт (3%)
    Текст #1
    Идентификатор : 189 (0xBD)-32 (0x20)
    Формат : RLE
    Формат/Информация : Run-length encoding
    Режим смешивания : DVD-Video
    Текст #2
    Идентификатор : 189 (0xBD)-33 (0x21)
    Формат : RLE
    Формат/Информация : Run-length encoding
    Режим смешивания : DVD-Video
    Меню
    Скриншоты для ознакомления

    Залил: YArl
    Размер скачиваемого торрента: 4.36 GB (4686303232 Bytes)

    Через край/За гранью/Over the Edge (1979) DVD-5 скачать через торрент бесплатно
    загрузка...
    Рейтинг →
     (голосов: 1, оценка 5/5, голосовать можно 1 раз )

    Другие торренты по теме:



      Комментарии (0):

      Информация

      Информация

        Посетители, находящиеся в группе Гости, не могут оставлять комментарии в данной новости.

        ↓ Меню



        ↓ Опрос

        А Вы добавили сайт в закладки?
        Да
        Не


        Top 10 за месяц (Фильмы)