.
Авторизация | Регистрация
» » Черные Ангелы / Black Angels / Burakku Enjeruzu (2011) DVDRip от BTT-TEAM скачать через торрент бесплатно




    Черные Ангелы / Black Angels / Burakku Enjeruzu (2011) DVDRip от BTT-TEAM скачать через торрент бесплатно

    Опубликовал: Админ | Дата: 27-02-2015, 11:10 | Просмотров: 153


    Черные Ангелы/Black Angels/Burakku Enjeruzu
    Создали в: 2011
    Снималось в: Япония,
    Категория жанра: Драма, боевик, триллер
    Время просмотра: 01:13:50
    Перевод текста: Любительский Одноголосый закадровый
    Русские субтитры: есть
    Главный режиссер: Uchida Eiji/Утида Эидзи
    Актеры: Мотоки Очиай, Майми Ядзима, Хидэо Сакаки, Соичи Хонда, Дзиро Сато и тд.
    Сюжет: Встречайте экранизацию новой манги. В этот раз воплощен в фильме экшн Черные ангелы Синдзи Хирамацу. Оригинальная манга Хирамацу издавалась с 1981 по 1985 год в еженедельном журнале Weekly Shonen Jump и рассказывала о приключениях группы убийц в черных одеждах, которые вели подпольную борьбу с мировой сетью преступников.
    В этой новой адаптации 20-летний актер Мотоки Очиай, известный по фильмам Гокусен: Кино и Шоу героев, сыграет Юкито, агента Черных ангелов, а 18-летний поп-идол и участница группы °C-ute Майми Ядзима выступит в роли Рэйры, забранной в детстве и выращенной как убийцей. Среди актерского состава также можно увидеть: Хидэо Сакаки, Соичи Хонда и Дзиро Сато.(с) JJ
    Релиз группы:
    Доп. информация:Перевод текста:Ворон,Редакция:Ленка(ФСГАльянс)
    ОзвучиваниеВорон
    Прежде чем качать видео и комментировать, скачайте сэмпл и послушайте!
    Качество фильма: DVDRip -Сэмпл
    Исходник: Black Angels (2011) NTSC DVD5
    Тип видео видео: AVI
    Информация о видео: 704x384 (1.83:1), 29.970 fps, XviD build 50 ~2237 kbps avg, 0.28 bit/pixel
    Информация о звуке: 48 kHz, AC3 Dolby Digital, 2/0 (L,R) ch, ~224 kbps (Русский)
    Информация о звуке: 48 kHz, AC3 Dolby Digital, 2/0 (L,R) ch, ~224 kbps (Японский)
    Тип видео субтитров: softsub (ass)
    Примечание по ДВД

    Да это тот редкий случай когда ДВД Прогресивный и имеет оригинальный фпс 29.970-Сэмпл ДВД


    Скриншоты для ознакомления



    Пример Субтитров

    Dialogue: 0,0:00:34.40,0:00:36.62,Default,,0,0,0,,Добрый день!NЯ из Службы доставки.
    Dialogue: 0,0:00:36.62,0:00:37.90,Default,,0,0,0,,Спасибо, что пришли.
    Dialogue: 0,0:00:43.28,0:00:45.31,Default,,0,0,0,,У меня посылка для Окэи Фудзу-самы.
    Dialogue: 0,0:00:45.51,0:00:46.93,Default,,0,0,0,,Хорошо.
    Dialogue: 0,0:00:49.42,0:00:51.18,Default,,0,0,0,,Пожалуйста, распишитесь здесь.
    Dialogue: 0,0:00:54.52,0:00:56.34,Default,,0,0,0,,Понемногу привыкаете к городу?
    Dialogue: 0,0:00:57.02,0:00:58.36,Default,,0,0,0,,Ну... да...
    Dialogue: 0,0:00:59.03,0:01:00.88,Default,,0,0,0,,но на работе ещё не освоился...
    Dialogue: 0,0:01:01.56,0:01:03.40,Default,,0,0,0,,Начальник кричит на меня каждый день.
    Dialogue: 0,0:01:06.03,0:01:07.63,Default,,0,0,0,,Спасибо большое!
    Dialogue: 0,0:01:08.40,0:01:11.29,Default,,0,0,0,,Подождите, может, чашечку кофе?
    Dialogue: 0,0:01:11.77,0:01:13.69,Default,,0,0,0,,Что? А разве можно?
    Dialogue: 0,0:01:13.87,0:01:15.24,Default,,0,0,0,,Ой, нет...
    Dialogue: 0,0:01:15.31,0:01:17.74,Default,,0,0,0,,У меня ещё осталась доставка.
    Dialogue: 0,0:01:17.98,0:01:20.10,Default,,0,0,0,,Разве небольшой перерыв помешает?
    Dialogue: 0,0:01:22.01,0:01:23.75,Default,,0,0,0,,Принимаю с благодарностью.
    Dialogue: 0,0:01:24.08,0:01:25.72,Default,,0,0,0,,Простите за беспокойство...
    Dialogue: 0,0:01:31.99,0:01:35.31,Default,,0,0,0,,У тебя будет такой же контрактNкак и у других девушек.
    Dialogue: 0,0:01:35.31,0:01:36.91,Default,,0,0,0,,Не бойся, ты не одна.
    Dialogue: 0,0:01:37.40,0:01:40.90,Default,,0,0,0,,Важно уметь позироватьNи правильно ходить.
    Dialogue: 0,0:01:41.03,0:01:43.93,Default,,0,0,0,,Конечно, мы можем дать парочку уроков.
    Dialogue: 0,0:01:44.05,0:01:44.92,Default,,0,0,0,,Правда?
    Dialogue: 0,0:01:44.92,0:01:48.92,Default,,0,0,0,,К тому же, почти у всех новенькихNдебют через полгода.
    Dialogue: 0,0:01:49.11,0:01:50.61,Default,,0,0,0,,Хорошо!
    Dialogue: 0,0:01:52.81,0:01:54.28,Default,,0,0,0,,Это тебе.
    Dialogue: 0,0:01:54.95,0:01:56.28,Default,,0,0,0,,Спасибо.
    Dialogue: 0,0:01:56.71,0:01:58.28,Default,,0,0,0,,Принимаю с благодарностью.
    Dialogue: 0,0:02:00.42,0:02:03.02,Default,,0,0,0,,Не хочешь заглянуть в наш офис?
    Dialogue: 0,0:02:04.33,0:02:05.36,Default,,0,0,0,,Но...
    Dialogue: 0,0:02:05.36,0:02:07.36,Default,,0,0,0,,Ты не должна решать сразу.
    Dialogue: 0,0:02:08.34,0:02:11.17,Default,,0,0,0,,У тебя есть время подумать.
    Dialogue: 0,0:02:15.10,0:02:16.70,Default,,0,0,0,,Серьёзно?
    Dialogue: 0,0:02:17.04,0:02:18.20,Default,,0,0,0,,Да-да.
    Dialogue: 0,0:02:23.34,0:02:25.55,Default,,0,0,0,,{i1}Юкито! Ты где пропал?!{i0}
    Dialogue: 0,0:02:25.55,0:02:26.71,Default,,0,0,0,,Понял!
    Dialogue: 0,0:02:27.42,0:02:29.95,Default,,0,0,0,,Я на полпути к месту доставки!
    Dialogue: 0,0:02:30.41,0:02:32.15,Default,,0,0,0,,Простите меня!

    отчет MediaInfo

    Формат : AVI
    Формат/Информация : Audio Video Interleave
    Размер файла : 1,39 Гбайт
    Продолжительность : 1 ч. 13 м.
    Общий поток : 2703 Кбит/сек
    Программа кодирования : VirtualDubMod 1.5.10.2 (build 2542/release)
    Библиотека кодирования : VirtualDubMod build 2542/release
    Видео
    Идентификатор : 0
    Формат : MPEG-4 Visual
    Профиль формата : Advanced Simple@L5
    Параметр BVOP формата : 2
    Параметр QPel формата : Нет
    Параметр GMC формата : Без точки перехода
    Параметр матрицы формата : Default (MPEG)
    Идентификатор кодека : XVID
    Идентификатор кодека/Подсказка : XviD
    Продолжительность : 1 ч. 13 м.
    Битрейт : 2238 Кбит/сек
    Ширина : 704 пикселя
    Высота : 384 пикселя
    Соотношение сторон : 1,85:1
    Частота кадров : 29,970 кадров/сек
    Цветовое пространство : YUV
    Субдискретизация насыщенности : 4:2:0
    Битовая глубина : 8 бит
    Тип развёртки : Прогрессивная
    Метод сжатия : С потерями
    Бит/(Пиксели*Кадры) : 0.276
    Размер потока : 1,15 Гбайт (83%)
    Библиотека кодирования : XviD 1.2.1 (UTC 2008-12-04)
    Аудио #1
    Идентификатор : 1
    Формат : AC-3
    Формат/Информация : Audio Coding 3
    Расширение режима : CM (complete main)
    Параметр Endianness формата : Big
    Идентификатор кодека : 2000
    Продолжительность : 1 ч. 13 м.
    Вид битрейта : Постоянный
    Битрейт : 224 Кбит/сек
    Каналы : 2 канала
    Расположение каналов : Front: L R
    Частота : 48,0 КГц
    Битовая глубина : 16 бит
    Метод сжатия : С потерями
    Размер потока : 118 Мбайт (8%)
    Выравнивание : Разделение по промежуткам
    Продолжительность промежутка : 33 мс. (1,00 видеокадр)
    Время предзагрузки промежутка : 500 мс.
    Аудио #2
    Идентификатор : 2
    Формат : AC-3
    Формат/Информация : Audio Coding 3
    Расширение режима : CM (complete main)
    Параметр Endianness формата : Big
    Идентификатор кодека : 2000
    Продолжительность : 1 ч. 13 м.
    Вид битрейта : Постоянный
    Битрейт : 224 Кбит/сек
    Каналы : 2 канала
    Расположение каналов : Front: L R
    Частота : 48,0 КГц
    Битовая глубина : 16 бит
    Метод сжатия : С потерями
    Размер потока : 118 Мбайт (8%)
    Выравнивание : Разделение по промежуткам
    Продолжительность промежутка : 33 мс. (1,00 видеокадр)
    Время предзагрузки промежутка : 500 мс.

    Размер скачиваемого торрента: 1.39 GB (1497153869 Bytes)

    Черные Ангелы/Black Angels/Burakku Enjeruzu (2011) DVDRip от BTT-TEAM скачать через торрент бесплатно
    загрузка...
    Рейтинг →
     (голосов: 1, оценка 4/5, голосовать можно 1 раз )

    Другие торренты по теме:

  • Черный ангел - Хозяин судьбы (2009-2011) MP3 торрент скачать бесплатно
  • Черный ангел / Lange noir (1994) DVDRip | P скачать через торрент бесплатно
  • Черный ангел / Black Angel, Senso 45 (2002) DVDRip от MediaClub | КПК скачать через торрент бесплатно
  • Черный ангел / Kuro no tenshi Vol. 1 / Black Angel (1997) BDRip 720p от MediaClub | P1 торрент скачать бесплатно
  • Черный ангел / Kuro no tenshi Vol. 1 (1998) BDRemux 1080p | L1 скачать торрент бесплатно
  • Ангелы с черными поясами / Black Belt Angels / 1994 / АП (Сербин) / LDRip скачать торрент бесплатно
  • Женщина в черном 2 : Ангел смерти (2015) скачать торрент бесплатно
  • Женщина в черном 2: Ангел смерти / The Woman in Black 2: Angel of Death (2014) HDRip | Лицензия скачать торрент бесплатно


    • Комментарии (0):

      Информация

      Информация

        Посетители, находящиеся в группе Гости, не могут оставлять комментарии в данной новости.

        ↓ Меню



        ↓ Опрос

        А Вы добавили сайт в закладки?
        Да
        Не


        Top 10 за неделю (Фильмы)