.
Авторизация | Регистрация
» » Ущерб / Damage (2009) BDRip-AVC | iPad | P скачать через торрент бесплатно




    Ущерб / Damage (2009) BDRip-AVC | iPad | P скачать через торрент бесплатно

    Опубликовал: Админ | Дата: 27-02-2015, 11:10 | Просмотров: 218


    Ущерб/Damage (2009) BDRip-AVC | iPad | P
    Fight hard to survive
    Русское название:Ущерб
    Русское название в мировом прокате:Damage
    Создали в:2009
    Категория жанра:боевик, драма
    Главный режиссер:Джефф Кинг
    Актеры:Стив Остин, Линда Бойд, Лора Вандервурт, Уолтон Гоггинс, Майкл Ханус, Адриан Холмс, Эрик Кинлисайд, Филлип Митчелл, Джорджи Монтези, Клифтон Маккейб Мюррэй, Джиллз Пэнтон
    Сюжет фильма:
    История Джона Брикнера о человеке, который недавно освободился условно из тюрьмы и пытается встать на правильный путь. Но ему это не удается... и он попадает в мир незаконных боёв без правил.

    Снималось в:США, Канада
    Киностудия:Nasser Group, North, Insight Film Studios, NGN Fighter Productions
    Время просмотра:01:46:13
    Перевод текста:Русский профессиональный многоголосый закадровый
    Файл
    Кодек для видео:H.264
    Качество фильма:BDRip-AVC 576p
    Информация о видео:1024x576 (16:9) at 23.976 fps, AVC at 3400 kbps
    Информация о звуке:
    1: АAС 2.0 116 kbps - Русский профессиональный многоголосый закадровый
    2: АAС 2.0 138 kbps - Английский
    Субтитры:Английский
    MI

    General
    Complete name : I:modoutDamage.2009.576p.P.m4v
    Format : MPEG-4
    Codec ID : M4V
    File size : 2.76 GiB
    Duration : 1h 46mn
    Overall bit rate mode : Variable
    Overall bit rate : 3 706 Kbps
    Movie name : Ущерб
    Performer : Jeff King
    Genre : Action Adventure
    ContentType : Short Film
    Deion : История Джона Брикнера о человеке, который недавно освободился условно из тюрьмы и пытается встать на правильный путь. Но ему это не удается… и он попадает в мир незаконных боев без правил.
    Recorded date : UTC 2009-10-05 08:00:00
    Encoded date : UTC 2014-08-20 15:04:04
    Tagged date : UTC 2014-08-20 15:07:48
    Copyright : NGN Productions
    Cover : Yes
    Comment : Fight hard to survive
    ContentRating : mpaa|R|400|
    Title/Sort : Damage (2009
    LongDeion : История Джона Брикнера о человеке, который недавно освободился условно из тюрьмы и пытается встать на правильный путь. Но ему это не удается… и он попадает в мир незаконных боев без правил.
    AppleStoreCatalogID : 351726748
    Vendor : Apple:vendor_id:2009-430686
    Video
    ID : 1
    Format : AVC
    Format/Info : Advanced Video Codec
    Format profile : High@L4.1
    Format settings, CABAC : Yes
    Format settings, ReFrames : 9 frames
    Codec ID : avc1
    Codec ID/Info : Advanced Video Coding
    Duration : 1h 46mn
    Bit rate : 3 450 Kbps
    Maximum bit rate : 15.5 Mbps
    Width : 1 024 pixels
    Height : 576 pixels
    Display aspect ratio : 16:9
    Frame rate mode : Constant
    Frame rate : 23.976 fps
    Color space : YUV
    Chroma subsampling : 4:2:0
    Bit depth : 8 bits
    Scan type : Progressive
    Bits/(Pixel*Frame) : 0.244
    Stream size : 2.56 GiB (93%)
    Title : Damage.2009
    Language : English
    Encoded date : UTC 2014-08-20 15:04:04
    Tagged date : UTC 2014-08-20 15:04:46
    Matrix coefficients : BT.709
    Audio #1
    ID : 2
    Format : AAC
    Format/Info : Advanced Audio Codec
    Format profile : LC
    Codec ID : 40
    Duration : 1h 46mn
    Bit rate mode : Variable
    Bit rate : 114 Kbps
    Maximum bit rate : 165 Kbps
    Channel(s) : 2 channels
    Channel positions : Front: L R
    Sampling rate : 48.0 KHz
    Compression mode : Lossy
    Stream size : 86.9 MiB (3%)
    Title : MVO
    Language : Russian
    Encoded date : UTC 2014-08-20 14:54:36
    Tagged date : UTC 2014-08-20 15:04:46
    Audio #2
    ID : 3
    Format : AAC
    Format/Info : Advanced Audio Codec
    Format profile : LC
    Codec ID : 40
    Duration : 1h 46mn
    Bit rate mode : Variable
    Bit rate : 138 Kbps
    Maximum bit rate : 190 Kbps
    Channel(s) : 2 channels
    Channel positions : Front: L R
    Sampling rate : 48.0 KHz
    Compression mode : Lossy
    Stream size : 105 MiB (4%)
    Language : English
    Encoded date : UTC 2014-08-20 15:00:28
    Tagged date : UTC 2014-08-20 15:04:46
    Menu
    ID : 4
    Codec ID : text
    Duration : 1h 46mn
    Encoded date : UTC 2014-08-20 15:05:25
    Tagged date : UTC 2014-08-20 15:05:25
    Bit rate mode : CBR
    iTunes tags

    Sort Name: Damage (2009
    XID: Apple:vendor_id:2009-430686
    Content ID: 351726748
    Copyright: NGN Productions
    ScreenWriters: Фрэнк Ханна
    Producers: Тим Браун, Тара Коуэлл-Плэйн, Дурейшевар
    Director: Джефф Кинг
    Cast: Стив Остин, Уолтон Гоггинс, Лора Вандервурт, Доннелли Роудс, Joe Costa, Линда Бойд, Скотт МакНил, Клифтон Маккейб Мюррэй, Джиллз Пэнтон, Пол Джарретт // Steve Austin (John Brickner), Lynda Boyd (Veronica), William B. Davis (Veltz), Walton Goggins (Reno), Laura Vandervoort (Frankie)
    Rating: R
    Long Deion: История Джона Брикнера о человеке, который недавно освободился условно из тюрьмы и пытается встать на правильный путь. Но ему это не удается… и он попадает в мир незаконных боев без правил.
    Deion: История Джона Брикнера о человеке, который недавно освободился условно из тюрьмы и пытается встать на правильный путь. Но ему это не удается… и он попадает в мир незаконных боев без правил.
    Release Date: 2009-10-05T08:00:00Z
    Genre: Action Adventure
    Artist: Jeff King
    Name: Ущерб
    Comments: Fight hard to survive
    x264

    x264 info: frame I:1359 Avg QP:15.06 size:116395
    x264 info: frame P:36126 Avg QP:19.32 size: 38635
    x264 info: frame B:115323 Avg QP:22.81 size: 10360
    x264 info: consecutive B-frames: 3.1% 3.0% 12.2% 22.9% 18.3% 32.5% 4.0% 2.4% 1.4% 0.1% 0.0% 0.1% 0.0%
    x264 info: mb I I16..4: 16.8% 45.1% 38.1%
    x264 info: mb P I16..4: 1.1% 10.1% 2.8% P16..4: 28.0% 33.6% 12.4% 4.4% 1.0% skip: 6.6%
    x264 info: mb B I16..4: 0.1% 1.4% 0.3% B16..8: 36.6% 16.7% 2.6% direct: 4.4% skip:38.0% L0:38.3% L1:46.2% BI:15.5%
    x264 info: 8x8 transform intra:69.4% inter:46.9%
    x264 info: coded y,uvDC,uvAC intra: 91.6% 80.5% 59.2% inter: 21.9% 14.8% 7.1%
    x264 info: i16 v,h,dc,p: 14% 7% 13% 66%
    x264 info: i8 v,h,dc,ddl,ddr,vr,hd,vl,hu: 9% 7% 6% 10% 15% 14% 14% 12% 13%
    x264 info: i4 v,h,dc,ddl,ddr,vr,hd,vl,hu: 10% 8% 5% 10% 15% 13% 13% 12% 13%
    x264 info: i8c dc,h,v,p: 42% 22% 18% 19%
    x264 info: Weighted P-Frames: Y:2.3% UV:0.8%
    x264 info: ref P L0: 60.5% 11.3% 12.9% 5.1% 3.4% 2.5% 2.0% 1.1% 1.1% 0.2% 0.0%
    x264 info: ref B L0: 89.3% 5.3% 2.6% 1.0% 0.7% 0.6% 0.4% 0.2%
    x264 info: ref B L1: 95.6% 4.4%
    x264 info: kb/s:3450.15
    Screenshots



    Залил: gekka
    Размер скачиваемого торрента: 2.76 GB (2958914314 Bytes)

    Ущерб/Damage (2009) BDRip-AVC | iPad | P скачать через торрент бесплатно
    загрузка...
    Рейтинг →
     (голосов: 1, оценка 3/5, голосовать можно 1 раз )

    Другие торренты по теме:



      Комментарии (0):

      Информация

      Информация

        Посетители, находящиеся в группе Гости, не могут оставлять комментарии в данной новости.

        ↓ Меню



        ↓ Опрос

        А Вы добавили сайт в закладки?
        Да
        Не


        Top 10 за неделю (Фильмы)