.
Авторизация | Регистрация
» » Частная жизнь Шерлока Холмса / The Private Life of Sherlock Holmes (1970) BDRip 720p от MediaClub | P, P2, A скачать через торрент бесплатно




    Частная жизнь Шерлока Холмса / The Private Life of Sherlock Holmes (1970) BDRip 720p от MediaClub | P, P2, A скачать через торрент бесплатно

    Опубликовал: Админ | Дата: 27-02-2015, 11:10 | Просмотров: 233


    Русское название:Частная жизнь Шерлока Холмса
    Русское название в мировом прокате:The Private Life of Sherlock Holmes
    Создали в:1970
    Категория жанра:Комедия, детектив
    Главный режиссер:Билли Уайлдер
    Актеры:Роберт Стивенс, Колин Блейкли, Женевьев Паж, Кристофер Ли, Тамара Туманова, Клайв Ревилл, Айрин Хэндл, Молли Морин, Стэнли Холлоуэй, Катрин Лэйси
    Сюжет фильма:В один прекрасный вечер на пороге дома 221Б по Бэйкер-стрит появляется прекрасная бельгийка Габриэль Валладон и умоляет Холмса найти ее пропавшего мужа. Хотя таинственный брат Майкрофт предупреждал Холмса не браться за это дело, Шерлок не отступает, и след приводит его в Шотландию, на берега знаменитого озера Лох-Несс, где Холмс и Ватсон лицом к лицу сталкиваются с легендарным чудищем…

    Снималось в:Великобритания
    Киностудия:Compton Films, Mirisch Films Limited, Phalanx Productions, Sir Nigel Films, The Mirisch Corporation, The Mirisch Production Company
    Время просмотра:02:05:28
    Перевод текста: Профессиональный многоголосый, профессиональный двухголосый, авторский одноголосый
    Файл
    Кодек для видео:MPEG-4 AVC
    Качество фильма:BDRip 720p
    Информация о видео:5800 Кбит/с, 1280x544, 23.976 кадр/с
    Информация о звуке #1:Русский (AC3, 2 ch, 192 Кбит/с)/Профессиональный многоголосый (5-й канал)
    Информация о звуке #2:Русский (AC3, 2 ch, 192 Кбит/с)/Профессиональный двухголосый
    Информация о звуке #3:Русский (AC3, 2 ch, 192 Кбит/с)/Профессиональный двухголосый (НТВ+)
    Информация о звуке #4:Русский (AC3, 2 ch, 192 Кбит/с)/Авторский одноголосый (Карцев)
    Информация о звуке #5:Английский (DTS, 2 ch, 1509 Кбит/с)
    Субтитры:Английские
    Семпл
    Инфо-файл
    General
    Unique ID : 203650706653366583778915527850962405524 (0x9935B30CCAA4B82BB6CB1783FCDF4894)
    Complete name : C:Chastnaja.zhizn.Sherloka.Holmsa.1970.x264.BDRip.(720p)-MediaClub.mkv
    Format : Matroska
    Format version : Version 2
    File size : 7.08 GiB
    Duration : 2h 5mn
    Overall bit rate : 8 080 Kbps
    Movie name : -=Released by Kortec for MediaClub=-
    Encoded date : UTC 2014-08-19 21:12:38
    Writing application : mkvmerge v4.0.0 (;The Stars were mine;) built on Jun 6 2010 16:18:42
    Writing library : libebml v1.0.0 + libmatroska v1.0.0
    Attachment : Yes
    Video
    ID : 1
    Format : AVC
    Format/Info : Advanced Video Codec
    Format profile : High@L4.1
    Format settings, CABAC : Yes
    Format settings, ReFrames : 9 frames
    Codec ID : V_MPEG4/ISO/AVC
    Duration : 2h 5mn
    Bit rate : 5 800 Kbps
    Width : 1 280 pixels
    Height : 544 pixels
    Display aspect ratio : 2.35:1
    Frame rate mode : Constant
    Frame rate : 23.976 fps
    Color space : YUV
    Chroma subsampling : 4:2:0
    Bit depth : 8 bits
    Scan type : Progressive
    Bits/(Pixel*Frame) : 0.347
    Stream size : 4.94 GiB (70%)
    Writing library : x264 core 130 r2273 b3065e6
    Encoding settings : cabac=1/ref=9/deblock=1:-2:-2/analyse=0x3:0x133/me=umh/subme=11/psy=1/psy_rd=1.00:0.10/mixed_ref=1/me_range=32/chroma_me=1/trellis=2/8x8dct=1/cqm=0/deadzone=21,11/fast_pskip=0/chroma_qp_offset=-3/threads=6/lookahead_threads=1/sliced_threads=0/nr=0/decimate=0/interlaced=0/bluray_compat=0/constrained_intra=0/bframes=8/b_pyramid=2/b_adapt=2/b_bias=0/direct=3/weightb=1/open_gop=0/weightp=2/keyint=250/keyint_min=23/scenecut=40/intra_refresh=0/rc=2pass/mbtree=0/bitrate=5800/ratetol=1.0/qcomp=0.60/qpmin=0/qpmax=69/qpstep=4/cplxblur=20.0/qblur=0.5/ip_ratio=1.40/pb_ratio=1.30/aq=1:0.80
    Language : English
    Default : No
    Forced : No
    Audio #1
    ID : 2
    Format : AC-3
    Format/Info : Audio Coding 3
    Mode extension : CM (complete main)
    Format settings, Endianness : Big
    Codec ID : A_AC3
    Duration : 2h 5mn
    Bit rate mode : Constant
    Bit rate : 192 Kbps
    Channel(s) : 2 channels
    Channel positions : Front: L R
    Sampling rate : 48.0 KHz
    Bit depth : 16 bits
    Compression mode : Lossy
    Stream size : 172 MiB (2%)
    Title : MVO – Петербург 5-й канал
    Language : Russian
    Default : Yes
    Forced : Yes
    Audio #2
    ID : 3
    Format : AC-3
    Format/Info : Audio Coding 3
    Mode extension : CM (complete main)
    Format settings, Endianness : Big
    Codec ID : A_AC3
    Duration : 2h 5mn
    Bit rate mode : Constant
    Bit rate : 192 Kbps
    Channel(s) : 2 channels
    Channel positions : Front: L R
    Sampling rate : 48.0 KHz
    Bit depth : 16 bits
    Compression mode : Lossy
    Stream size : 172 MiB (2%)
    Title : DVO
    Language : Russian
    Default : No
    Forced : No
    Audio #3
    ID : 4
    Format : AC-3
    Format/Info : Audio Coding 3
    Mode extension : CM (complete main)
    Format settings, Endianness : Big
    Codec ID : A_AC3
    Duration : 2h 5mn
    Bit rate mode : Constant
    Bit rate : 192 Kbps
    Channel(s) : 2 channels
    Channel positions : Front: L R
    Sampling rate : 48.0 KHz
    Bit depth : 16 bits
    Compression mode : Lossy
    Stream size : 172 MiB (2%)
    Title : DVO – НТВ
    Language : Russian
    Default : No
    Forced : No
    Audio #4
    ID : 5
    Format : AC-3
    Format/Info : Audio Coding 3
    Mode extension : CM (complete main)
    Format settings, Endianness : Big
    Codec ID : A_AC3
    Duration : 2h 5mn
    Bit rate mode : Constant
    Bit rate : 192 Kbps
    Channel(s) : 2 channels
    Channel positions : Front: L R
    Sampling rate : 48.0 KHz
    Bit depth : 16 bits
    Compression mode : Lossy
    Stream size : 172 MiB (2%)
    Title : AVO – П.Карцев
    Language : Russian
    Default : No
    Forced : No
    Audio #5
    ID : 6
    Format : DTS
    Format/Info : Digital Theater Systems
    Mode : 16
    Format settings, Endianness : Big
    Codec ID : A_DTS
    Duration : 2h 5mn
    Bit rate mode : Constant
    Bit rate : 1 509 Kbps
    Channel(s) : 2 channels
    Channel positions : Front: L R
    Sampling rate : 48.0 KHz
    Bit depth : 16 bits
    Compression mode : Lossy
    Stream size : 1.32 GiB (19%)
    Language : English
    Default : No
    Forced : No
    Text
    ID : 7
    Format : UTF-8
    Codec ID : S_TEXT/UTF8
    Codec ID/Info : UTF-8 Plain Text
    Language : English
    Default : No
    Forced : No
    Menu
    00:00:00.000 : en:Chapter 1
    00:17:06.608 : en:Chapter 2
    00:33:31.092 : en:Chapter 3
    00:52:07.415 : en:Chapter 4
    01:08:26.018 : en:Chapter 5
    01:24:21.097 : en:Chapter 6
    01:39:13.197 : en:Chapter 7
    01:51:12.749 : en:Chapter 8

    Скриншоты для ознакомления


    О релизе
    Рип:Kortec
    Релиз группа:MediaClub
    За 5 канал спасибоStudioRAK, за дорожку №2 спасибоSpirya, за НТВ—IVH, за Карцева —Kruil

    Релиз подготовил:
    Размер скачиваемого торрента: 7.08 GB (7603622605 Bytes)

    Частная жизнь Шерлока Холмса/The Private Life of Sherlock Holmes (1970) BDRip 720p от MediaClub | P, P2, A скачать через торрент бесплатно
    загрузка...
    Рейтинг →
     (голосов: 1, оценка 4/5, голосовать можно 1 раз )

    Другие торренты по теме:



      Комментарии (0):

      Информация

      Информация

        Посетители, находящиеся в группе Гости, не могут оставлять комментарии в данной новости.

        ↓ Меню



        ↓ Опрос

        А Вы добавили сайт в закладки?
        Да
        Не


        Top 10 за неделю (Фильмы)