.
Авторизация | Регистрация
Хочешь лучшие торренты? Добавь свой email!
Добавить
» » Индиана Джонс: Квадрология / Indiana Jones: The Complete Adventures (1981-2008) BDRip-AVC скачать через торрент бесплатно




    Индиана Джонс: Квадрология / Indiana Jones: The Complete Adventures (1981-2008) BDRip-AVC скачать через торрент бесплатно

    Опубликовал: Админ | Дата: 27-02-2015, 11:10 | Просмотров: 214


    Русское название:Индиана Джонс - Квадрология
    Русское название в мировом прокате:Indiana Jones - Quadrilogy
    Создали в:1981, 1984, 1989, 2008
    Категория жанра:Приключения, боевик, триллер, мистика, комедия
    Снималось в:США, Lucasfilm Ltd.
    Время просмотра:01:55:18, 01:58:26, 02:06:53, 02:02:32
    Перевод текста:Профессиональный многоголосый, дублированный
    Субтитры:Русские, английские
    Главный режиссер:Стивен Спилберг
    Актеры:Харрисон Форд, Пол Фримен, Кейт Бланшетт, Карен Аллен, Шайа ЛаБаф, Рэй Уинстоун, Джон Хёрт, Рональд Лейси, Кейт Кэпшоу, Джонатан Ке Кван, Джон Рис-Дэвис, Денхолм Эллиотт, Шон Коннери, Элисон Дуди, Альфред Молина, Дэн Эйкройд, Рекс Нгуи, Дэвид Ип, Амриш Пури, Рошан Сет, Майкл Бирн, Филип Стоун, Вольф Калер, Джулиан Гловер, Кеворк Маликян, Энтони Хиггинс, Вик Тэблиан, Роберт Эддисон, Дон Феллоуз, Уильям Хуткинс, Билл Рэймбуд, Ривер Феникс, Фред Соренсон, Рой Чяо, Патрик Даркин, Джим Бродбент, Игорь Жижикин, Дмитрий Дьяченко (I), Ричард Янг, Алексей Сейл, Мэтью Скарфильд, Малкольм Уивер
    Сюжет фильма:Известный археолог и специалист по оккультным наукам доктор Джонс получает опасное задание от правительства США. Он должен отправиться на поиски уникальной реликвии - священного Ковчега. Но Индиана и не подозревает, что аналогичный приказ уже получили тайные агенты Адольфа Гитлера... Этим потрясающим фильмом продюсер Джордж Лукас и режиссер Стивен Спилберг положили начало саги о странствиях благородного доктора Джонса по всевозможным уголкам земного шара.
    Качество фильма:BDRip (AVC)
    Информация о видео:MPEG-4 AVC, ~ 3350 Кбит/с, 1024x436/1024x428
    Аудио
    Индиана Джонс 1-3
    1) Профессиональный многоголосый (НТВ+) - AC3, 6 ch, 448 Кбит/с
    2) Профессиональный многоголосый (Киномания) - AC3, 6 ch, 384 Кбит/с
    3) Украинский дублированный (ICTV) - AC3, 2 ch, 192 Кбит/с
    4) Английский - AC3, 6 ch, 448 Кбит/с
    Индиана Джонс 4
    1) Дублированный (BD EUR) - AC3, 6 ch, 448 Кбит/с
    2) Профессиональный многоголосый (Киномания) - AC3, 6 ch, 448 Кбит/с
    3) Украинский дублированный (R5) - AC3, 6 ch, 448 Кбит/с
    4) Английский - AC3, 6 ch, 448 Кбит/с
    Краткое содержание серий
    Индиана Джонс: В поисках утраченного ковчега: (1981г.)Известный археолог и специалист по оккультным наукам доктор Джонс получает опасное задание от правительства США. Он должен отправиться на поиски уникальной реликвии - священного Ковчега. Но Индиана и не подозревает, что аналогичный приказ уже получили тайные агенты Адольфа Гитлера...

    Индиана Джонс и Храм Судьбы : (1984г.)Вторая часть невероятных похождений прославленного археолога и искателя приключений Индианы Джонса. В этот раз бесстрашный доктор Джонс совершит путешествие в сердце Гималаев вместе с ресторанной певичкой Уилли Скотт и своим верным маленьким помощником Коротышкой.

    Индиана Джонс и последний крестовый поход : (1989г.)
    Третья часть невероятных похождений прославленного археолога и искателя приключений Индианы Джонса. На этот раз бесстрашный Индиана разыскивает самую таинственную реликвию в истории человечества - Святой Грааль. В этом археологу помогает его отец - профессор Джонс старший.

    Индиана Джонс и Королевство хрустального черепа: (2008г.)1957 год, разгар холодной войны. Советские солдаты, возглавляемые агентом Ириной Спалько, похищают Мэрион Рэйвенвуд - давнюю возлюбленную Индианы Джонса, ставя профессора перед выбором: бездействие и смерть Мэрион или помощь советской разведке в поисках легендарного Хрустального черепа в обмен на свободу женщины.

    MediaInfo
    Unique ID : 193915965084793828615723541330069709594 (0x91E2DB3C0EBB494D8B128279DEDA631A)
    Complete name : D:Indiana.Dzhons.Kvadrologija.1981-2008.x264.BDRip.(AVC).fanatus1.V.poiskah.utrachennogo.kovchega.1981.x264.BDRip.(AVC).fanatus.mkv
    Format : Matroska
    Format version : Version 2
    File size : 3.77 GiB
    Duration : 1h 55mn
    Overall bit rate : 4 675 Kbps
    Movie name : Raiders of the Lost Ark (1981) - fanatus
    Encoded date : UTC 2012-09-29 07:35:38
    Writing application : mkvmerge v3.4.0 (;Rapunzel;) сборка от May 15 2010 09:38:20
    Writing library : libebml v0.8.0 + libmatroska v0.9.0
    Video
    ID : 1
    Format : AVC
    Format/Info : Advanced Video Codec
    Format profile : High@L4.1
    Format settings, CABAC : Yes
    Format settings, ReFrames : 11 frames
    Codec ID : V_MPEG4/ISO/AVC
    Duration : 1h 55mn
    Bit rate : 3 200 Kbps
    Width : 1 024 pixels
    Height : 436 pixels
    Display aspect ratio : 2.35:1
    Frame rate : 23.976 fps
    Color space : YUV
    Chroma subsampling : 4:2:0
    Bit depth : 8 bits
    Scan type : Progressive
    Bits/(Pixel*Frame) : 0.299
    Stream size : 2.50 GiB (67%)
    Title : Raiders of the Lost Ark (1981)
    Writing library : x264 core 128 r2216 198a7ea
    Encoding settings : cabac=1/ref=11/deblock=1:-3:-3/analyse=0x3:0x113/me=tesa/subme=11/psy=1/psy_rd=1.00:0.10/mixed_ref=1/me_range=48/chroma_me=1/trellis=2/8x8dct=1/cqm=0/deadzone=21,11/fast_pskip=0/chroma_qp_offset=-3/threads=16/lookahead_threads=2/sliced_threads=0/nr=0/decimate=0/interlaced=0/bluray_compat=0/constrained_intra=0/bframes=13/b_pyramid=2/b_adapt=2/b_bias=0/direct=3/weightb=1/open_gop=0/weightp=2/keyint=240/keyint_min=24/scenecut=40/intra_refresh=0/rc_lookahead=240/rc=2pass/mbtree=1/bitrate=3200/ratetol=1.0/qcomp=0.65/qpmin=0/qpmax=69/qpstep=4/cplxblur=20.0/qblur=0.5/ip_ratio=1.40/aq=2:0.90
    Language : English
    Default : Yes
    Forced : No
    Audio #1
    ID : 2
    Format : AC-3
    Format/Info : Audio Coding 3
    Mode extension : CM (complete main)
    Format settings, Endianness : Big
    Codec ID : A_AC3
    Duration : 1h 55mn
    Bit rate mode : Constant
    Bit rate : 448 Kbps
    Channel(s) : 6 channels
    Channel positions : Front: L C R, Side: L R, LFE
    Sampling rate : 48.0 KHz
    Bit depth : 16 bits
    Compression mode : Lossy
    Stream size : 370 MiB (10%)
    Title : MVO ( NTV+)
    Language : Russian
    Default : Yes
    Forced : Yes
    Audio #2
    ID : 3
    Format : AC-3
    Format/Info : Audio Coding 3
    Mode extension : CM (complete main)
    Format settings, Endianness : Big
    Codec ID : A_AC3
    Duration : 1h 55mn
    Bit rate mode : Constant
    Bit rate : 384 Kbps
    Channel(s) : 6 channels
    Channel positions : Front: L C R, Side: L R, LFE
    Sampling rate : 48.0 KHz
    Bit depth : 16 bits
    Compression mode : Lossy
    Stream size : 317 MiB (8%)
    Title : MVO (Kinomanija)
    Language : Russian
    Default : No
    Forced : No
    Audio #3
    ID : 4
    Format : AC-3
    Format/Info : Audio Coding 3
    Mode extension : CM (complete main)
    Format settings, Endianness : Big
    Codec ID : A_AC3
    Duration : 1h 55mn
    Bit rate mode : Constant
    Bit rate : 192 Kbps
    Channel(s) : 2 channels
    Channel positions : Front: L R
    Sampling rate : 48.0 KHz
    Bit depth : 16 bits
    Compression mode : Lossy
    Stream size : 158 MiB (4%)
    Title : Dub (ICTV)
    Language : Ukrainian
    Default : No
    Forced : No
    Audio #4
    ID : 5
    Format : AC-3
    Format/Info : Audio Coding 3
    Mode extension : CM (complete main)
    Format settings, Endianness : Big
    Codec ID : A_AC3
    Duration : 1h 55mn
    Bit rate mode : Constant
    Bit rate : 448 Kbps
    Channel(s) : 6 channels
    Channel positions : Front: L C R, Side: L R, LFE
    Sampling rate : 48.0 KHz
    Bit depth : 16 bits
    Compression mode : Lossy
    Stream size : 370 MiB (10%)
    Title : Original
    Language : English
    Default : No
    Forced : No
    Text #1
    ID : 6
    Format : UTF-8
    Codec ID : S_TEXT/UTF8
    Codec ID/Info : UTF-8 Plain Text
    Language : Russian
    Default : No
    Forced : No
    Text #2
    ID : 7
    Format : UTF-8
    Codec ID : S_TEXT/UTF8
    Codec ID/Info : UTF-8 Plain Text
    Language : English
    Default : No
    Forced : No
    Text #3
    ID : 8
    Format : UTF-8
    Codec ID : S_TEXT/UTF8
    Codec ID/Info : UTF-8 Plain Text
    Title : SDH
    Language : English
    Default : No
    Forced : No
    Menu
    00:00:00.000 : en:Chapter 01
    00:03:16.528 : en:Chapter 02
    00:05:44.634 : en:Chapter 03
    00:09:51.131 : en:Chapter 04
    00:12:49.349 : en:Chapter 05
    00:15:23.630 : en:Chapter 06
    00:20:27.433 : en:Chapter 07
    00:22:58.416 : en:Chapter 08
    00:28:51.354 : en:Chapter 09
    00:33:42.393 : en:Chapter 10
    00:36:23.389 : en:Chapter 11
    00:40:04.818 : en:Chapter 12
    00:42:16.157 : en:Chapter 13
    00:46:41.507 : en:Chapter 14
    00:49:32.927 : en:Chapter 15
    00:51:00.931 : en:Chapter 16
    00:55:11.141 : en:Chapter 17
    00:58:33.217 : en:Chapter 18
    01:03:05.738 : en:Chapter 19
    01:08:26.143 : en:Chapter 20
    01:10:25.345 : en:Chapter 21
    01:15:33.153 : en:Chapter 22
    01:22:24.354 : en:Chapter 23
    01:25:43.762 : en:Chapter 24
    01:29:57.515 : en:Chapter 25
    01:34:30.662 : en:Chapter 26
    01:38:06.171 : en:Chapter 27
    01:41:06.060 : en:Chapter 28
    01:44:06.823 : en:Chapter 29
    01:47:01.412 : en:Chapter 30
    01:49:05.997 : en:Chapter 31
    01:55:18.619 : en:Chapter 32

    General
    Unique ID : 202812241145737340547298332162550956557 (0x989437823DF7606F81A5EAA9EE18820D)
    Complete name : D:Indiana.Dzhons.Kvadrologija.1981-2008.x264.BDRip.(AVC).fanatus2.Hram.Sudby.1984.x264.BDRip.(AVC).fanatus.mkv
    Format : Matroska
    Format version : Version 2
    File size : 4.12 GiB
    Duration : 1h 58mn
    Overall bit rate : 4 974 Kbps
    Movie name : Indiana Jones and the Temple of Doom (1984) - fanatus
    Encoded date : UTC 2012-09-30 11:59:17
    Writing application : mkvmerge v3.4.0 (;Rapunzel;) сборка от May 15 2010 09:38:20
    Writing library : libebml v0.8.0 + libmatroska v0.9.0
    Video
    ID : 1
    Format : AVC
    Format/Info : Advanced Video Codec
    Format profile : High@L4.1
    Format settings, CABAC : Yes
    Format settings, ReFrames : 11 frames
    Codec ID : V_MPEG4/ISO/AVC
    Duration : 1h 58mn
    Bit rate : 3 500 Kbps
    Width : 1 024 pixels
    Height : 436 pixels
    Display aspect ratio : 2.35:1
    Frame rate : 23.976 fps
    Color space : YUV
    Chroma subsampling : 4:2:0
    Bit depth : 8 bits
    Scan type : Progressive
    Bits/(Pixel*Frame) : 0.327
    Stream size : 2.82 GiB (68%)
    Title : Indiana Jones and the Temple of Doom (1984)
    Writing library : x264 core 128 r2216 198a7ea
    Encoding settings : cabac=1/ref=11/deblock=1:-3:-3/analyse=0x3:0x113/me=tesa/subme=11/psy=1/psy_rd=1.00:0.10/mixed_ref=1/me_range=48/chroma_me=1/trellis=2/8x8dct=1/cqm=0/deadzone=21,11/fast_pskip=0/chroma_qp_offset=-3/threads=16/lookahead_threads=2/sliced_threads=0/nr=0/decimate=0/interlaced=0/bluray_compat=0/constrained_intra=0/bframes=12/b_pyramid=2/b_adapt=2/b_bias=0/direct=3/weightb=1/open_gop=0/weightp=2/keyint=240/keyint_min=24/scenecut=40/intra_refresh=0/rc_lookahead=240/rc=2pass/mbtree=1/bitrate=3500/ratetol=1.0/qcomp=0.65/qpmin=0/qpmax=69/qpstep=4/cplxblur=20.0/qblur=0.5/ip_ratio=1.40/aq=2:0.80
    Language : English
    Default : Yes
    Forced : No
    Audio #1
    ID : 2
    Format : AC-3
    Format/Info : Audio Coding 3
    Mode extension : CM (complete main)
    Format settings, Endianness : Big
    Codec ID : A_AC3
    Duration : 1h 58mn
    Bit rate mode : Constant
    Bit rate : 448 Kbps
    Channel(s) : 6 channels
    Channel positions : Front: L C R, Side: L R, LFE
    Sampling rate : 48.0 KHz
    Bit depth : 16 bits
    Compression mode : Lossy
    Stream size : 380 MiB (9%)
    Title : MVO ( NTV+)
    Language : Russian
    Default : Yes
    Forced : Yes
    Audio #2
    ID : 3
    Format : AC-3
    Format/Info : Audio Coding 3
    Mode extension : CM (complete main)
    Format settings, Endianness : Big
    Codec ID : A_AC3
    Duration : 1h 58mn
    Bit rate mode : Constant
    Bit rate : 384 Kbps
    Channel(s) : 6 channels
    Channel positions : Front: L C R, Side: L R, LFE
    Sampling rate : 48.0 KHz
    Bit depth : 16 bits
    Compression mode : Lossy
    Stream size : 325 MiB (8%)
    Title : MVO (Kinomanija)
    Language : Russian
    Default : No
    Forced : No
    Audio #3
    ID : 4
    Format : AC-3
    Format/Info : Audio Coding 3
    Mode extension : CM (complete main)
    Format settings, Endianness : Big
    Codec ID : A_AC3
    Duration : 1h 58mn
    Bit rate mode : Constant
    Bit rate : 192 Kbps
    Channel(s) : 2 channels
    Channel positions : Front: L R
    Sampling rate : 48.0 KHz
    Bit depth : 16 bits
    Compression mode : Lossy
    Stream size : 163 MiB (4%)
    Title : Dub (ICTV)
    Language : Ukrainian
    Default : No
    Forced : No
    Audio #4
    ID : 5
    Format : AC-3
    Format/Info : Audio Coding 3
    Mode extension : CM (complete main)
    Format settings, Endianness : Big
    Codec ID : A_AC3
    Duration : 1h 58mn
    Bit rate mode : Constant
    Bit rate : 448 Kbps
    Channel(s) : 6 channels
    Channel positions : Front: L C R, Side: L R, LFE
    Sampling rate : 48.0 KHz
    Bit depth : 16 bits
    Compression mode : Lossy
    Stream size : 380 MiB (9%)
    Title : Original
    Language : English
    Default : No
    Forced : No
    Text #1
    ID : 6
    Format : UTF-8
    Codec ID : S_TEXT/UTF8
    Codec ID/Info : UTF-8 Plain Text
    Language : Russian
    Default : No
    Forced : No
    Text #2
    ID : 7
    Format : UTF-8
    Codec ID : S_TEXT/UTF8
    Codec ID/Info : UTF-8 Plain Text
    Language : English
    Default : No
    Forced : No
    Text #3
    ID : 8
    Format : UTF-8
    Codec ID : S_TEXT/UTF8
    Codec ID/Info : UTF-8 Plain Text
    Title : SDH
    Language : English
    Default : No
    Forced : No
    Menu
    00:00:00.000 : en:Chapter 01
    00:02:54.048 : en:Chapter 02
    00:08:07.278 : en:Chapter 03
    00:10:52.734 : en:Chapter 04
    00:12:51.479 : en:Chapter 05
    00:16:00.542 : en:Chapter 06
    00:19:50.189 : en:Chapter 07
    00:26:28.670 : en:Chapter 08
    00:28:42.971 : en:Chapter 09
    00:31:49.032 : en:Chapter 10
    00:35:21.160 : en:Chapter 11
    00:38:57.001 : en:Chapter 12
    00:41:20.518 : en:Chapter 13
    00:46:24.323 : en:Chapter 14
    00:50:42.956 : en:Chapter 15
    00:52:06.581 : en:Chapter 16
    00:56:08.364 : en:Chapter 17
    00:59:57.218 : en:Chapter 18
    01:05:57.078 : en:Chapter 19
    01:09:52.021 : en:Chapter 20
    01:13:08.550 : en:Chapter 21
    01:17:08.290 : en:Chapter 22
    01:24:01.953 : en:Chapter 23
    01:27:33.331 : en:Chapter 24
    01:29:21.104 : en:Chapter 25
    01:35:03.447 : en:Chapter 26
    01:39:23.874 : en:Chapter 27
    01:41:51.271 : en:Chapter 28
    01:43:38.795 : en:Chapter 29
    01:49:57.966 : en:Chapter 30
    01:53:10.909 : en:Chapter 31
    01:58:27.975 : en:Chapter 32

    General
    Unique ID : 229006139254113559374455245509719824673 (0xAC48FA6502BD9C3B8FD103F7B8E91921)
    Complete name : D:Indiana.Dzhons.Kvadrologija.1981-2008.x264.BDRip.(AVC).fanatus3.Poslednij.krestovyj.pohod.1989.x264.BDRip.(AVC).fanatus.mkv
    Format : Matroska
    Format version : Version 2
    File size : 4.41 GiB
    Duration : 2h 6mn
    Overall bit rate : 4 975 Kbps
    Movie name : Indiana Jones and the Last Crusade (1989) - fanatus
    Encoded date : UTC 2012-10-01 09:51:41
    Writing application : mkvmerge v3.4.0 (;Rapunzel;) сборка от May 15 2010 09:38:20
    Writing library : libebml v0.8.0 + libmatroska v0.9.0
    Video
    ID : 1
    Format : AVC
    Format/Info : Advanced Video Codec
    Format profile : High@L4.1
    Format settings, CABAC : Yes
    Format settings, ReFrames : 11 frames
    Codec ID : V_MPEG4/ISO/AVC
    Duration : 2h 6mn
    Bit rate : 3 500 Kbps
    Width : 1 024 pixels
    Height : 436 pixels
    Display aspect ratio : 2.35:1
    Frame rate : 23.976 fps
    Color space : YUV
    Chroma subsampling : 4:2:0
    Bit depth : 8 bits
    Scan type : Progressive
    Bits/(Pixel*Frame) : 0.327
    Stream size : 3.02 GiB (68%)
    Title : Indiana Jones and the Last Crusade (1989)
    Writing library : x264 core 128 r2216 198a7ea
    Encoding settings : cabac=1/ref=11/deblock=1:-3:-3/analyse=0x3:0x113/me=tesa/subme=11/psy=1/psy_rd=1.00:0.10/mixed_ref=1/me_range=48/chroma_me=1/trellis=2/8x8dct=1/cqm=0/deadzone=21,11/fast_pskip=0/chroma_qp_offset=-3/threads=16/lookahead_threads=2/sliced_threads=0/nr=0/decimate=0/interlaced=0/bluray_compat=0/constrained_intra=0/bframes=12/b_pyramid=2/b_adapt=2/b_bias=0/direct=3/weightb=1/open_gop=0/weightp=2/keyint=240/keyint_min=24/scenecut=40/intra_refresh=0/rc_lookahead=240/rc=2pass/mbtree=1/bitrate=3500/ratetol=1.0/qcomp=0.65/qpmin=0/qpmax=69/qpstep=4/cplxblur=20.0/qblur=0.5/ip_ratio=1.40/aq=2:0.80
    Language : English
    Default : Yes
    Forced : No
    Audio #1
    ID : 2
    Format : AC-3
    Format/Info : Audio Coding 3
    Mode extension : CM (complete main)
    Format settings, Endianness : Big
    Codec ID : A_AC3
    Duration : 2h 6mn
    Bit rate mode : Constant
    Bit rate : 448 Kbps
    Channel(s) : 6 channels
    Channel positions : Front: L C R, Side: L R, LFE
    Sampling rate : 48.0 KHz
    Bit depth : 16 bits
    Compression mode : Lossy
    Stream size : 407 MiB (9%)
    Title : MVO ( NTV+)
    Language : Russian
    Default : Yes
    Forced : Yes
    Audio #2
    ID : 3
    Format : AC-3
    Format/Info : Audio Coding 3
    Mode extension : CM (complete main)
    Format settings, Endianness : Big
    Codec ID : A_AC3
    Duration : 2h 6mn
    Bit rate mode : Constant
    Bit rate : 384 Kbps
    Channel(s) : 6 channels
    Channel positions : Front: L C R, Side: L R, LFE
    Sampling rate : 48.0 KHz
    Bit depth : 16 bits
    Compression mode : Lossy
    Stream size : 349 MiB (8%)
    Title : MVO (Kinomanija)
    Language : Russian
    Default : No
    Forced : No
    Audio #3
    ID : 4
    Format : AC-3
    Format/Info : Audio Coding 3
    Mode extension : CM (complete main)
    Format settings, Endianness : Big
    Codec ID : A_AC3
    Duration : 2h 6mn
    Bit rate mode : Constant
    Bit rate : 192 Kbps
    Channel(s) : 2 channels
    Channel positions : Front: L R
    Sampling rate : 48.0 KHz
    Bit depth : 16 bits
    Compression mode : Lossy
    Stream size : 174 MiB (4%)
    Title : Dub (ICTV)
    Language : Ukrainian
    Default : No
    Forced : No
    Audio #4
    ID : 5
    Format : AC-3
    Format/Info : Audio Coding 3
    Mode extension : CM (complete main)
    Format settings, Endianness : Big
    Codec ID : A_AC3
    Duration : 2h 6mn
    Bit rate mode : Constant
    Bit rate : 448 Kbps
    Channel(s) : 6 channels
    Channel positions : Front: L C R, Side: L R, LFE
    Sampling rate : 48.0 KHz
    Bit depth : 16 bits
    Compression mode : Lossy
    Stream size : 407 MiB (9%)
    Title : Original
    Language : English
    Default : No
    Forced : No
    Text #1
    ID : 6
    Format : UTF-8
    Codec ID : S_TEXT/UTF8
    Codec ID/Info : UTF-8 Plain Text
    Language : Russian
    Default : No
    Forced : No
    Text #2
    ID : 7
    Format : UTF-8
    Codec ID : S_TEXT/UTF8
    Codec ID/Info : UTF-8 Plain Text
    Language : English
    Default : No
    Forced : No
    Text #3
    ID : 8
    Format : UTF-8
    Codec ID : S_TEXT/UTF8
    Codec ID/Info : UTF-8 Plain Text
    Title : SDH
    Language : English
    Default : No
    Forced : No
    Menu
    00:00:00.000 : en:Chapter 01
    00:04:41.905 : en:Chapter 02
    00:08:11.031 : en:Chapter 03
    00:11:49.040 : en:Chapter 04
    00:14:14.435 : en:Chapter 05
    00:17:19.413 : en:Chapter 06
    00:22:14.583 : en:Chapter 07
    00:24:51.447 : en:Chapter 08
    00:26:52.152 : en:Chapter 09
    00:30:15.563 : en:Chapter 10
    00:36:31.564 : en:Chapter 11
    00:41:10.426 : en:Chapter 12
    00:44:41.387 : en:Chapter 13
    00:47:42.401 : en:Chapter 14
    00:50:23.729 : en:Chapter 15
    00:54:47.534 : en:Chapter 16
    00:56:31.137 : en:Chapter 17
    01:00:16.112 : en:Chapter 18
    01:03:08.743 : en:Chapter 19
    01:05:31.385 : en:Chapter 20
    01:07:47.313 : en:Chapter 21
    01:10:43.530 : en:Chapter 22
    01:13:36.328 : en:Chapter 23
    01:16:11.358 : en:Chapter 24
    01:18:57.107 : en:Chapter 25
    01:21:20.041 : en:Chapter 26
    01:23:28.420 : en:Chapter 27
    01:25:16.736 : en:Chapter 28
    01:26:58.046 : en:Chapter 29
    01:31:21.934 : en:Chapter 30
    01:36:57.061 : en:Chapter 31
    01:38:53.427 : en:Chapter 32
    01:41:32.544 : en:Chapter 33
    01:49:18.260 : en:Chapter 34
    01:56:05.667 : en:Chapter 35
    02:00:05.907 : en:Chapter 36
    02:06:53.105 : en:Chapter 37

    General
    Unique ID : 183784717025286790729528247566900079604 (0x8A43A623D04D94EE85B49023760F2BF4)
    Complete name : D:Indiana.Dzhons.Kvadrologija.1981-2008.x264.BDRip.(AVC).fanatus4.Korolevstvo.hrustalnogo.cherepa.2008.x264.BDRip.(AVC).fanatus.mkv
    Format : Matroska
    Format version : Version 2
    File size : 4.27 GiB
    Duration : 2h 2mn
    Overall bit rate : 4 981 Kbps
    Movie name : Indiana Jones and the Kingdom of the Crystal Skull (2008) - fanatus
    Encoded date : UTC 2012-10-10 01:24:59
    Writing application : mkvmerge v3.4.0 (;Rapunzel;) сборка от May 15 2010 09:38:20
    Writing library : libebml v0.8.0 + libmatroska v0.9.0
    Video
    ID : 1
    Format : AVC
    Format/Info : Advanced Video Codec
    Format profile : High@L4.1
    Format settings, CABAC : Yes
    Format settings, ReFrames : 11 frames
    Codec ID : V_MPEG4/ISO/AVC
    Duration : 2h 2mn
    Bit rate : 3 200 Kbps
    Width : 1 024 pixels
    Height : 428 pixels
    Display aspect ratio : 2.40:1
    Frame rate : 23.976 fps
    Color space : YUV
    Chroma subsampling : 4:2:0
    Bit depth : 8 bits
    Scan type : Progressive
    Bits/(Pixel*Frame) : 0.305
    Stream size : 2.65 GiB (62%)
    Title : Indiana Jones and the Kingdom of the Crystal Skull (2008)
    Writing library : x264 core 128 r2216 198a7ea
    Encoding settings : cabac=1/ref=11/deblock=1:-3:-3/analyse=0x3:0x113/me=esa/subme=11/psy=1/psy_rd=1.00:0.10/mixed_ref=1/me_range=48/chroma_me=1/trellis=2/8x8dct=1/cqm=0/deadzone=21,11/fast_pskip=0/chroma_qp_offset=-3/threads=16/lookahead_threads=2/sliced_threads=0/nr=0/decimate=0/interlaced=0/bluray_compat=0/constrained_intra=0/bframes=14/b_pyramid=2/b_adapt=2/b_bias=0/direct=3/weightb=1/open_gop=0/weightp=2/keyint=240/keyint_min=23/scenecut=40/intra_refresh=0/rc_lookahead=40/rc=2pass/mbtree=0/bitrate=3200/ratetol=1.0/qcomp=0.60/qpmin=0/qpmax=69/qpstep=4/cplxblur=20.0/qblur=0.5/vbv_maxrate=50000/vbv_bufsize=62500/nal_hrd=none/ip_ratio=1.40/pb_ratio=1.30/aq=2:0.90
    Language : English
    Default : Yes
    Forced : No
    Matrix coefficients : BT.709-5, BT.1361, IEC 61966-2-4 709, SMPTE RP177
    Audio #1
    ID : 2
    Format : AC-3
    Format/Info : Audio Coding 3
    Mode extension : CM (complete main)
    Format settings, Endianness : Big
    Codec ID : A_AC3
    Duration : 2h 2mn
    Bit rate mode : Constant
    Bit rate : 448 Kbps
    Channel(s) : 6 channels
    Channel positions : Front: L C R, Side: L R, LFE
    Sampling rate : 48.0 KHz
    Bit depth : 16 bits
    Compression mode : Lossy
    Stream size : 393 MiB (9%)
    Title : Dub (BD EUR)
    Language : Russian
    Default : Yes
    Forced : Yes
    Audio #2
    ID : 3
    Format : AC-3
    Format/Info : Audio Coding 3
    Mode extension : CM (complete main)
    Format settings, Endianness : Big
    Codec ID : A_AC3
    Duration : 2h 2mn
    Bit rate mode : Constant
    Bit rate : 448 Kbps
    Channel(s) : 6 channels
    Channel positions : Front: L C R, Side: L R, LFE
    Sampling rate : 48.0 KHz
    Bit depth : 16 bits
    Compression mode : Lossy
    Stream size : 393 MiB (9%)
    Title : MVO (Kinomanija)
    Language : Russian
    Default : No
    Forced : No
    Audio #3
    ID : 4
    Format : AC-3
    Format/Info : Audio Coding 3
    Mode extension : CM (complete main)
    Format settings, Endianness : Big
    Codec ID : A_AC3
    Duration : 2h 2mn
    Bit rate mode : Constant
    Bit rate : 448 Kbps
    Channel(s) : 6 channels
    Channel positions : Front: L C R, Side: L R, LFE
    Sampling rate : 48.0 KHz
    Bit depth : 16 bits
    Compression mode : Lossy
    Stream size : 393 MiB (9%)
    Title : Dub (R5)
    Language : Ukrainian
    Default : No
    Forced : No
    Audio #4
    ID : 5
    Format : AC-3
    Format/Info : Audio Coding 3
    Mode extension : CM (complete main)
    Format settings, Endianness : Big
    Codec ID : A_AC3
    Duration : 2h 2mn
    Bit rate mode : Constant
    Bit rate : 448 Kbps
    Channel(s) : 6 channels
    Channel positions : Front: L C R, Side: L R, LFE
    Sampling rate : 48.0 KHz
    Bit depth : 16 bits
    Compression mode : Lossy
    Stream size : 393 MiB (9%)
    Title : Original
    Language : English
    Default : No
    Forced : No
    Text #1
    ID : 6
    Format : UTF-8
    Codec ID : S_TEXT/UTF8
    Codec ID/Info : UTF-8 Plain Text
    Language : Russian
    Default : No
    Forced : No
    Text #2
    ID : 7
    Format : UTF-8
    Codec ID : S_TEXT/UTF8
    Codec ID/Info : UTF-8 Plain Text
    Language : English
    Default : No
    Forced : No
    Text #3
    ID : 8
    Format : UTF-8
    Codec ID : S_TEXT/UTF8
    Codec ID/Info : UTF-8 Plain Text
    Title : SDH
    Language : English
    Default : No
    Forced : No
    Menu
    00:00:00.000 : en:Chapter 01
    00:07:21.482 : en:Chapter 02
    00:13:11.499 : en:Chapter 03
    00:21:45.304 : en:Chapter 04
    00:27:39.156 : en:Chapter 05
    00:36:58.507 : en:Chapter 06
    00:46:34.916 : en:Chapter 07
    00:55:37.458 : en:Chapter 08
    01:05:46.525 : en:Chapter 09
    01:12:08.073 : en:Chapter 10
    01:21:52.948 : en:Chapter 11
    01:29:13.930 : en:Chapter 12
    01:36:04.256 : en:Chapter 13
    01:44:23.296 : en:Chapter 14
    01:51:09.244 : en:Chapter 15
    01:55:55.030 : en:Chapter 16





    Размер скачиваемого торрента: 16.56 GB (17776785580 Bytes)

    Индиана Джонс: Квадрология/Indiana Jones: The Complete Adventures (1981-2008) BDRip-AVC скачать через торрент бесплатно
    загрузка...
    Рейтинг →
     (голосов: 1, оценка 3/5, голосовать можно 1 раз )

    Другие торренты по теме:

  • Индиана Джонс: В поисках утраченного ковчега / Indiana Jones: Raiders of the Lost Ark (1981) BDRip от HELLYWOOD
  • Индиана Джонс и последний крестовый поход / Indiana Jones and the Last Crusade (1989) HDRip от Scarabey | Р
  • Индиана Джонс и Храм Судьбы / Indiana Jones and the Temple of Doom (1984) HDRip от Scarabey | Р
  • Индиана Джонс и Королевство xрустального черепа / Indiana Jones and the Kingdom of the Crystal Skull (2008) BDRip от HELLYWOOD
  • OST - Индиана Джонс / Indiana Jones The Soundtracks Collection (1981-2008) MP3
  • Индиана Джонс: Квадрология / Indiana Jones: Quadrilogy (1981-2008) HDRip-AVC от WazZzup | D
  • Индиана Джонс: Квадрология / Indiana Jones: The Complete Adventures (1981-2008) BDRip 720p скачать через торрент бесплатно
  • Индиана Джонс. Квадрология / Indiana Jones. Quadrology (1981 - 2008) HDRip-AVC | iPhone / iPad скачать через торрент бесплатно


    • Комментарии (0):

      Информация

      Информация

        Посетители, находящиеся в группе Гости, не могут оставлять комментарии в данной новости.

        ↓ Меню



        ↓ Опрос

        А Вы добавили сайт в закладки?
        Да
        Не


        Top 10 за месяц (Фильмы)